eztvx.to | eztvstatus.org
Search title:  
TV Packs only
 

Blood Free S01E04 x265 720p DSNP WEB-DL-ADWeb EZTV

Episode Breakdown
Blood Free
Blood Free TV Show S01E04

Season: 1
Episode: 4
Air Date: 17 April, 2024
Download Links
     Torrent Download     Magnet Download
     Anonymous Download
Added 1 month ago by eztv (verified).
Tracker Statistics
Seeds: 3
Peers: 2
Stats generated @ 21:02 on 14th Jun 2024
Torrent Info
Torrent File: Blood Free S01E04 x265 720p DSNP WEB-DL-ADWeb[EZTVx.to].mkv
Torrent Hash: 71A87FF212E75698356DA21B237257FB5A014A47
Filesize: 406 MB
Released: 18th Apr 2024

File Format: MKV (Matroska)
Resolution: 1280x720 px
Aspect Ratio: 16:9
Alternate Releases S L
Blood Free S01E04 1080p WEB h264-EDITH 8 3
Blood Free S01E04 XviD-AFG 2 1
Blood Free S01E04 1080p HEVC x265-MeGusta 4 1

Blood Free S01E04 - Episode 4

Summary:

The hacker is found dead, and Jayu is suspected of being responsible.



Blood Free S01E04 x265 720p DSNP WEB-DL-ADWeb EZTV
Blood Free S1E4 Screenshot


General
Unique ID: 185886080817298829280611179504324045147 (0x8BD85B5FB44EDA54CEE0162434BBE95B)
Complete name: Blood Free S01E04 x265 720p DSNP WEB-DL-ADWeb.mkv
Format: Matroska
Format version: Version 4
File size: 406 MiB
Duration: 53 min 55 s
Overall bit rate: 1 053 kb/s
Frame rate: 23.976 FPS
Movie name: Blood.Free.S01E04 - Dramaday.me
Encoded date: 2024-04-17 07:46:24 UTC
Writing application: mkvmerge v68.0.0 ('The Curtain') 64-bit
Writing library: libebml v1.4.2 + libmatroska v1.6.4

Video
ID: 1
Format: HEVC
Format/Info: High Efficiency Video Coding
Format profile: Main [email protected]@Main
Codec ID: V_MPEGH/ISO/HEVC
Duration: 53 min 55 s
Bit rate: 984 kb/s
Width: 1 280 pixels
Height: 720 pixels
Display aspect ratio: 16:9
Frame rate mode: Constant
Frame rate: 23.976 (24000/1001) FPS
Color space: YUV
Chroma subsampling: 4:2:0
Bit depth: 10 bits
Bits/(Pixel*Frame): 0.045
Stream size: 380 MiB (93%)
Writing library: x265 3.2.1+1-b5c86a64bbbe:[Windows][GCC 9.2.0][64 bit] 10bit
Encoding settings: cpuid=1111039 / frame-threads=3 / numa-pools=12 / wpp / no-pmode / no-pme / no-psnr / no-ssim / log-level=2 / input-csp=1 / input-res=1280x720 / interlace=0 / total-frames=0 / level-idc=0 / high-tier=1 / uhd-bd=0 / ref=2 / no-allow-non-conformance / no-repeat-headers / annexb / no-aud / no-hrd / info / hash=0 / no-temporal-layers / open-gop / min-keyint=24 / keyint=240 / gop-lookahead=0 / bframes=4 / b-adapt=0 / b-pyramid / bframe-bias=0 / rc-lookahead=15 / lookahead-slices=4 / scenecut=40 / radl=0 / no-splice / no-intra-refresh / ctu=64 / min-cu-size=8 / no-rect / no-amp / max-tu-size=32 / tu-inter-depth=1 / tu-intra-depth=1 / limit-tu=0 / rdoq-level=0 / dynamic-rd=0.00 / no-ssim-rd / signhide / no-tskip / nr-intra=0 / nr-inter=0 / no-constrained-intra / strong-intra-smoothing / max-merge=2 / limit-refs=3 / no-limit-modes / me=1 / subme=2 / merange=57 / temporal-mvp / no-hme / weightp / no-weightb / no-analyze-src-pics / deblock=0:0 / sao / no-sao-non-deblock / rd=2 / selective-sao=4 / early-skip / rskip / fast-intra / no-tskip-fast / no-cu-lossless / no-b-intra / no-splitrd-skip / rdpenalty=0 / psy-rd=2.00 / psy-rdoq=0.00 / no-rd-refine / no-lossless / cbqpoffs=0 / crqpoffs=0 / rc=crf / crf=20.0 / qcomp=0.60 / qpstep=4 / stats-write=0 / stats-read=0 / ipratio=1.40 / pbratio=1.30 / aq-mode=2 / aq-strength=1.00 / cutree / zone-count=0 / no-strict-cbr / qg-size=32 / no-rc-grain / qpmax=69 / qpmin=0 / no-const-vbv / sar=1 / overscan=0 / videoformat=5 / range=0 / colorprim=1 / transfer=1 / colormatrix=1 / chromaloc=0 / display-window=0 / cll=0,0 / min-luma=0 / max-luma=1023 / log2-max-poc-lsb=8 / vui-timing-info / vui-hrd-info / slices=1 / no-opt-qp-pps / no-opt-ref-list-length-pps / no-multi-pass-opt-rps / scenecut-bias=0.05 / no-opt-cu-delta-qp / no-aq-motion / no-hdr / no-hdr-opt / no-dhdr10-opt / no-idr-recovery-sei / analysis-reuse-level=5 / scale-factor=0 / refine-intra=0 / refine-inter=0 / refine-mv=1 / refine-ctu-distortion=0 / no-limit-sao / ctu-info=0 / no-lowpass-dct / refine-analysis-type=0 / copy-pic=1 / max-ausize-factor=1.0 / no-dynamic-refine / no-single-sei / no-hevc-aq / no-svt / no-field / qp-adaptation-range=1.00
Default: Yes
Forced: No
Color range: Limited
Color primaries: BT.709
Transfer characteristics: BT.709
Matrix coefficients: BT.709

Audio
ID: 2
Format: AAC LC SBR
Format/Info: Advanced Audio Codec Low Complexity with Spectral Band Replication
Commercial name: HE-AAC
Format settings: NBC
Codec ID: A_AAC-5
Duration: 53 min 55 s
Bit rate: 64.0 kb/s
Channel(s): 2 channels
Channel layout: L R
Sampling rate: 48.0 kHz
Frame rate: 23.438 FPS (2048 SPF)
Compression mode: Lossy
Delay relative to video: -105 ms
Stream size: 24.7 MiB (6%)
Language: Korean
Default: Yes
Forced: No

Text #1
ID: 3
Format: UTF-8
Codec ID: S_TEXT/UTF8
Codec ID/Info: UTF-8 Plain Text
Duration: 53 min 7 s
Bit rate: 51 b/s
Frame rate: 0.197 FPS
Count of elements: 627
Stream size: 20.0 KiB (0%)
Title: English
Language: English
Default: No
Forced: No

Text #2
ID: 4
Format: UTF-8
Codec ID: S_TEXT/UTF8
Codec ID/Info: UTF-8 Plain Text
Duration: 53 min 7 s
Bit rate: 56 b/s
Frame rate: 0.216 FPS
Count of elements: 690
Stream size: 22.0 KiB (0%)
Title: SDH
Language: English
Default: No
Forced: No

Text #3
ID: 5
Format: UTF-8
Codec ID: S_TEXT/UTF8
Codec ID/Info: UTF-8 Plain Text
Duration: 53 min 52 s
Bit rate: 45 b/s
Frame rate: 0.183 FPS
Count of elements: 592
Stream size: 18.1 KiB (0%)
Title: Czech
Language: Czech
Default: No
Forced: No

Text #4
ID: 6
Format: UTF-8
Codec ID: S_TEXT/UTF8
Codec ID/Info: UTF-8 Plain Text
Duration: 53 min 52 s
Bit rate: 48 b/s
Frame rate: 0.192 FPS
Count of elements: 620
Stream size: 19.2 KiB (0%)
Title: Danish
Language: Danish
Default: No
Forced: No

Text #5
ID: 7
Format: UTF-8
Codec ID: S_TEXT/UTF8
Codec ID/Info: UTF-8 Plain Text
Duration: 53 min 52 s
Bit rate: 45 b/s
Frame rate: 0.160 FPS
Count of elements: 517
Stream size: 17.8 KiB (0%)
Title: Dutch
Language: Dutch
Default: No
Forced: No

Text #6
ID: 8
Format: UTF-8
Codec ID: S_TEXT/UTF8
Codec ID/Info: UTF-8 Plain Text
Duration: 53 min 52 s
Bit rate: 52 b/s
Frame rate: 0.193 FPS
Count of elements: 623
Stream size: 20.6 KiB (0%)
Title: French
Language: French
Default: No
Forced: No

Text #7
ID: 9
Format: UTF-8
Codec ID: S_TEXT/UTF8
Codec ID/Info: UTF-8 Plain Text
Duration: 53 min 52 s
Bit rate: 51 b/s
Frame rate: 0.192 FPS
Count of elements: 621
Stream size: 20.3 KiB (0%)
Title: Finnish
Language: Finnish
Default: No
Forced: No

Text #8
ID: 10
Format: UTF-8
Codec ID: S_TEXT/UTF8
Codec ID/Info: UTF-8 Plain Text
Duration: 53 min 52 s
Bit rate: 53 b/s
Frame rate: 0.193 FPS
Count of elements: 625
Stream size: 21.1 KiB (0%)
Title: German
Language: German
Default: No
Forced: No

Text #9
ID: 11
Format: UTF-8
Codec ID: S_TEXT/UTF8
Codec ID/Info: UTF-8 Plain Text
Duration: 53 min 52 s
Bit rate: 80 b/s
Frame rate: 0.202 FPS
Count of elements: 653
Stream size: 31.9 KiB (0%)
Title: Greek
Language: Greek
Default: No
Forced: No

Text #10
ID: 12
Format: UTF-8
Codec ID: S_TEXT/UTF8
Codec ID/Info: UTF-8 Plain Text
Duration: 53 min 52 s
Bit rate: 47 b/s
Frame rate: 0.186 FPS
Count of elements: 601
Stream size: 18.8 KiB (0%)
Title: Hungarian
Language: Hungarian
Default: No
Forced: No

Text #11
ID: 13
Format: UTF-8
Codec ID: S_TEXT/UTF8
Codec ID/Info: UTF-8 Plain Text
Duration: 53 min 52 s
Bit rate: 46 b/s
Frame rate: 0.191 FPS
Count of elements: 616
Stream size: 18.3 KiB (0%)
Title: Japanese
Language: Japanese
Default: No
Forced: No

Text #12
ID: 14
Format: UTF-8
Codec ID: S_TEXT/UTF8
Codec ID/Info: UTF-8 Plain Text
Duration: 53 min 52 s
Bit rate: 52 b/s
Frame rate: 0.209 FPS
Count of elements: 674
Stream size: 20.5 KiB (0%)
Title: Indonesian
Language: Indonesian
Default: No
Forced: No

Text #13
ID: 15
Format: UTF-8
Codec ID: S_TEXT/UTF8
Codec ID/Info: UTF-8 Plain Text
Duration: 53 min 52 s
Bit rate: 46 b/s
Frame rate: 0.202 FPS
Count of elements: 653
Stream size: 18.2 KiB (0%)
Title: Italian
Language: Italian
Default: No
Forced: No

Text #14
ID: 16
Format: UTF-8
Codec ID: S_TEXT/UTF8
Codec ID/Info: UTF-8 Plain Text
Duration: 53 min 49 s
Bit rate: 82 b/s
Frame rate: 0.287 FPS
Count of elements: 928
Stream size: 32.5 KiB (0%)
Title: Korean
Language: Korean
Default: No
Forced: No

Text #15
ID: 17
Format: UTF-8
Codec ID: S_TEXT/UTF8
Codec ID/Info: UTF-8 Plain Text
Duration: 53 min 52 s
Bit rate: 51 b/s
Frame rate: 0.209 FPS
Count of elements: 674
Stream size: 20.2 KiB (0%)
Title: Malay
Language: Malay
Default: No
Forced: No

Text #16
ID: 18
Format: UTF-8
Codec ID: S_TEXT/UTF8
Codec ID/Info: UTF-8 Plain Text
Duration: 53 min 52 s
Bit rate: 44 b/s
Frame rate: 0.152 FPS
Count of elements: 492
Stream size: 17.7 KiB (0%)
Title: Norwegian
Language: Norwegian
Default: No
Forced: No

Text #17
ID: 19
Format: UTF-8
Codec ID: S_TEXT/UTF8
Codec ID/Info: UTF-8 Plain Text
Duration: 53 min 52 s
Bit rate: 44 b/s
Frame rate: 0.194 FPS
Count of elements: 627
Stream size: 17.4 KiB (0%)
Title: Polish
Language: Polish
Default: No
Forced: No

Text #18
ID: 20
Format: UTF-8
Codec ID: S_TEXT/UTF8
Codec ID/Info: UTF-8 Plain Text
Duration: 53 min 52 s
Bit rate: 50 b/s
Frame rate: 0.208 FPS
Count of elements: 671
Stream size: 20.1 KiB (0%)
Title: Portuguese
Language: Portuguese
Default: No
Forced: No

Text #19
ID: 21
Format: UTF-8
Codec ID: S_TEXT/UTF8
Codec ID/Info: UTF-8 Plain Text
Duration: 53 min 52 s
Bit rate: 46 b/s
Frame rate: 0.203 FPS
Count of elements: 655
Stream size: 18.4 KiB (0%)
Title: Brazilian Portuguese
Language: Portuguese
Default: No
Forced: No

Text #20
ID: 22
Format: UTF-8
Codec ID: S_TEXT/UTF8
Codec ID/Info: UTF-8 Plain Text
Duration: 53 min 52 s
Bit rate: 47 b/s
Frame rate: 0.151 FPS
Count of elements: 488
Stream size: 18.9 KiB (0%)
Title: Romanian
Language: Romanian
Default: No
Forced: No

Text #21
ID: 23
Format: UTF-8
Codec ID: S_TEXT/UTF8
Codec ID/Info: UTF-8 Plain Text
Duration: 53 min 52 s
Bit rate: 47 b/s
Frame rate: 0.206 FPS
Count of elements: 666
Stream size: 18.6 KiB (0%)
Title: Slovak
Language: Slovak
Default: No
Forced: No

Text #22
ID: 24
Format: UTF-8
Codec ID: S_TEXT/UTF8
Codec ID/Info: UTF-8 Plain Text
Duration: 53 min 52 s
Bit rate: 47 b/s
Frame rate: 0.194 FPS
Count of elements: 626
Stream size: 18.7 KiB (0%)
Title: Spanish
Language: Spanish
Default: No
Forced: No

Text #23
ID: 25
Format: UTF-8
Codec ID: S_TEXT/UTF8
Codec ID/Info: UTF-8 Plain Text
Duration: 53 min 52 s
Bit rate: 51 b/s
Frame rate: 0.204 FPS
Count of elements: 660
Stream size: 20.3 KiB (0%)
Title: Swedish
Language: Swedish
Default: No
Forced: No

Text #24
ID: 26
Format: UTF-8
Codec ID: S_TEXT/UTF8
Codec ID/Info: UTF-8 Plain Text
Duration: 53 min 52 s
Bit rate: 144 b/s
Frame rate: 0.209 FPS
Count of elements: 676
Stream size: 56.9 KiB (0%)
Title: Thai
Language: Thai
Default: No
Forced: No

Text #25
ID: 27
Format: UTF-8
Codec ID: S_TEXT/UTF8
Codec ID/Info: UTF-8 Plain Text
Duration: 53 min 52 s
Bit rate: 50 b/s
Frame rate: 0.209 FPS
Count of elements: 674
Stream size: 20.0 KiB (0%)
Title: Turkish
Language: Turkish
Default: No
Forced: No

Text #26
ID: 28
Format: UTF-8
Codec ID: S_TEXT/UTF8
Codec ID/Info: UTF-8 Plain Text
Duration: 53 min 52 s
Bit rate: 42 b/s
Frame rate: 0.209 FPS
Count of elements: 674
Stream size: 16.8 KiB (0%)
Title: Chinese Simplified
Language: Chinese
Default: No
Forced: No

Text #27
ID: 29
Format: UTF-8
Codec ID: S_TEXT/UTF8
Codec ID/Info: UTF-8 Plain Text
Duration: 53 min 52 s
Bit rate: 42 b/s
Frame rate: 0.209 FPS
Count of elements: 674
Stream size: 16.8 KiB (0%)
Title: Chinese Traditional
Language: Chinese
Default: No
Forced: No

ssl  EZTV RSS EZTV Status | EZTV API | DMCA: [email protected]