eztvx.to | eztvstatus.org
Search title:  
TV Packs only
 

My Sibling s Romance S01E04 2024 1080p WAVVE WEB-DL H264 AAC-ADWeb EZTV

Episode Breakdown
My Sibling's Romance
My Sibling's Romance TV Show S01E04

Season: 1
Episode: 4
Air Date: 22 March, 2024
Download Links
     Torrent Download     Magnet Download
     Anonymous Download
Added 2 months ago by eztv (verified).
Tracker Statistics
Seeds: 1
Peers: 3
Stats generated @ 16:13 on 24th Jun 2024
Torrent Info
Torrent File: My.Sibling_s.Romance.S01E04.2024.1080p.WAVVE.WEB-DL.H264.AAC-ADWeb[EZTVx.to].mkv
Torrent Hash: 9CE4517891F657D67F1E9C6CEB3ABE10267AD740
Filesize: 5.10 GB
Released: 15th Apr 2024

File Format: MKV (Matroska)
Resolution: 1920x1080 px
Aspect Ratio: 16:9

My Sibling's Romance S01E04 - 10 Minutes

Summary:
My Sibling s Romance S01E04 2024 1080p WAVVE WEB-DL H264 AAC-ADWeb EZTV
My Sibling's Romance S1E4 Screenshot


General
Unique ID: 164756732501215453018895728461530184138 (0x7BF2FE12464EB8CC3F9FB86A31DEB9CA)
Complete name: My.Sibling_s.Romance.S01E04.2024.1080p.WAVVE.WEB-DL.H264.AAC-ADWeb.mkv
Format: Matroska
Format version: Version 4
File size: 5.10 GiB
Duration: 2 h 20 min
Overall bit rate mode: Variable
Overall bit rate: 5 193 kb/s
Frame rate: 29.970 FPS
Encoded date: 2024-03-22 11:19:54 UTC
Writing application: mkvmerge v82.0 ('I'm The President') 64-bit
Writing library: libebml v1.4.5 + libmatroska v1.7.1
Muxer: ADWeb

Video
ID: 1
Format: AVC
Format/Info: Advanced Video Codec
Format profile: High@L4
Format settings: CABAC / 4 Ref Frames
Format settings, CABAC: Yes
Format settings, Reference frames: 4 frames
Codec ID: V_MPEG4/ISO/AVC
Duration: 2 h 20 min
Bit rate mode: Variable
Bit rate: 4 998 kb/s
Maximum bit rate: 10 000 kb/s
Width: 1 920 pixels
Height: 1 080 pixels
Display aspect ratio: 16:9
Frame rate mode: Constant
Frame rate: 29.970 (30000/1001) FPS
Color space: YUV
Chroma subsampling: 4:2:0
Bit depth: 8 bits
Scan type: Progressive
Bits/(Pixel*Frame): 0.080
Stream size: 4.90 GiB (96%)
Default: Yes
Forced: No

Audio
ID: 2
Format: AAC LC
Format/Info: Advanced Audio Codec Low Complexity
Codec ID: A_AAC-2
Duration: 2 h 20 min
Bit rate: 192 kb/s
Channel(s): 2 channels
Channel layout: L R
Sampling rate: 48.0 kHz
Frame rate: 46.875 FPS (1024 SPF)
Compression mode: Lossy
Stream size: 193 MiB (4%)
Language: Korean
Default: Yes
Forced: No
ssl  EZTV RSS EZTV Status | EZTV API | DMCA: [email protected]