eztvx.to | eztvstatus.org
Search title:  
TV Packs only
 

Sight Unseen 2024 S01E04 Mia 1080p AMZN WEB-DL DDP5 1 H 264-NTb EZTV

Episode Breakdown
Sight Unseen
Sight Unseen TV Show S01E04

Season: 1
Episode: 4
Air Date: 12 February, 2024
Download Links
     Torrent Download     Magnet Download
     Anonymous Download
Added 3 months ago by eztv (verified).
Tracker Statistics
Seeds: 0
Peers: 1
Stats generated @ 01:48 on 25th Jul 2024
Torrent Info
Torrent File: Sight Unseen 2024 S01E04 Mia 1080p AMZN WEB-DL DDP5 1 H 264-NTb[EZTVx.to].mkv
Torrent Hash: 645A275C5ED316B1DBE9CA3040B29562B4A153D9
Filesize: 1.38 GB
Released: 10th Apr 2024

File Format: MKV (Matroska)
Resolution: 1920x1080 px
Aspect Ratio: 16:9
Alternate Releases S L
Sight Unseen 2024 S01E04 720p HEVC x265-MeGusta 7 7
Sight Unseen 2024 S01E04 720p HDTV x264-SYNCOPY 1 1
Sight Unseen 2024 S01E04 480p x264-mSD 1 2
Sight Unseen 2024 S01E04 XviD-AFG 0 1
Sight Unseen 2024 S01E04 1080p WEBRip x264-BAE 0 0
Sight Unseen 2024 S01E04 720p WEBRip x264-BAE 0 0
Sight Unseen 2024 S01E04 Mia 1080p CTV WEB-DL DD5 1 H 264-NTb 0 0

Sight Unseen S01E04 - Mia

Summary:

Jake encourages Tess to talk to Superintendent Bennett about getting her old job back, but her hopes are cut short by his disappointing offer to join the Metro PD in a desk role. Frustrated, Tess takes on an unsolved murder of a woman killed in her delivery van, allowing her to bring justice to an overlooked victim while proving her old boss wrong. Tess accepts a lesson in cane navigation from Mia, but Sunny is never far from her ear – except when she gets cut off, just as Tess goes on a date with a potential killer. 



Sight Unseen 2024 S01E04 Mia 1080p AMZN WEB-DL DDP5 1 H 264-NTb EZTV
Sight Unseen S1E4 Screenshot


General
Unique ID: 284375214867289253307548651065083265181 (0xD5F0AC96C3172FEC68E062FB59F9809D)
Complete name: Sight Unseen 2024 S01E04 Mia 1080p AMZN WEB-DL DDP5 1 H 264-NTb.mkv
Format: Matroska
Format version: Version 4
File size: 1.38 GiB
Duration: 42 min 33 s
Overall bit rate: 4 659 kb/s
Frame rate: 23.976 FPS
Writing application: mkvmerge v81.0 ('Milliontown') 64-bit
Writing library: libebml v1.4.4 + libmatroska v1.7.1

Video
ID: 1
Format: AVC
Format/Info: Advanced Video Codec
Format profile: High@L4
Format settings: CABAC / 4 Ref Frames
Format settings, CABAC: Yes
Format settings, Reference frames: 4 frames
Codec ID: V_MPEG4/ISO/AVC
Duration: 42 min 33 s
Bit rate mode: Constant
Bit rate: 4 016 kb/s
Nominal bit rate: 10 000 kb/s
Width: 1 920 pixels
Height: 1 080 pixels
Display aspect ratio: 16:9
Frame rate mode: Constant
Frame rate: 23.976 (24000/1001) FPS
Color space: YUV
Chroma subsampling: 4:2:0
Bit depth: 8 bits
Scan type: Progressive
Bits/(Pixel*Frame): 0.081
Stream size: 1.19 GiB (86%)
Default: Yes
Forced: No
Color range: Limited
Color primaries: BT.709
Transfer characteristics: BT.709
Matrix coefficients: BT.709

Audio
ID: 2
Format: E-AC-3
Format/Info: Enhanced AC-3
Commercial name: Dolby Digital Plus
Codec ID: A_EAC3
Duration: 42 min 33 s
Bit rate mode: Constant
Bit rate: 640 kb/s
Channel(s): 6 channels
Channel layout: L R C LFE Ls Rs
Sampling rate: 48.0 kHz
Frame rate: 31.250 FPS (1536 SPF)
Compression mode: Lossy
Delay relative to video: 16 ms
Stream size: 195 MiB (14%)
Language: English (US)
Service kind: Complete Main
Default: Yes
Forced: No

Text #1
ID: 3
Format: UTF-8
Codec ID: S_TEXT/UTF8
Codec ID/Info: UTF-8 Plain Text
Duration: 41 min 46 s
Bit rate: 87 b/s
Frame rate: 0.415 FPS
Count of elements: 1040
Stream size: 26.8 KiB (0%)
Language: English (US)
Default: No
Forced: No

Text #2
ID: 4
Format: UTF-8
Codec ID: S_TEXT/UTF8
Codec ID/Info: UTF-8 Plain Text
Duration: 41 min 57 s
Bit rate: 92 b/s
Frame rate: 0.432 FPS
Count of elements: 1088
Stream size: 28.5 KiB (0%)
Title: SDH
Language: English (US)
Default: No
Forced: No
ssl  EZTV RSS EZTV Status | EZTV API | DMCA: [email protected]