eztvx.to | eztvstatus.org
Search title:  
TV Packs only
 

Dark Side Of The Ring S05E05 1080p VICE WEB-DL AAC2 0 H 264-NTb EZTV

Episode Breakdown
Dark Side of the Ring
Dark Side of the Ring TV Show S05E05

Season: 5
Episode: 5
Air Date: 2 April, 2024
Download Links
     Torrent Download     Magnet Download
     Anonymous Download
Added 17 days ago by eztv (verified).
Tracker Statistics
Seeds: 30
Peers: 2
Stats generated @ 04:23 on 21st Apr 2024
Torrent Info
Torrent File: Dark Side Of The Ring S05E05 1080p VICE WEB-DL AAC2 0 H 264-NTb[EZTVx.to].mkv
Torrent Hash: 006C06D13FDA100E7540FBE5884CF9C10A93AC65
Filesize: 1.86 GB
Released: 3rd Apr 2024

File Format: MKV (Matroska)
Resolution: 1920x1080 px
Aspect Ratio: 16:9
Alternate Releases S L
Dark Side Of The Ring S05E05 1080p WEB h264-BAE 5 2
Dark Side Of The Ring S05E05 XviD-AFG 4 2
Dark Side Of The Ring S05E05 1080p HEVC x265-MeGusta 10 9

Dark Side of the Ring S05E05 - The Life and Legends of Harley Race

Summary:

Harley Race achieved near mythical status for wrestling fans as the ultimate tough guy, but behind closed doors his life was haunted by violence and unimaginable personal tragedy.



Dark Side Of The Ring S05E05 1080p VICE WEB-DL AAC2 0 H 264-NTb EZTV
Dark Side of the Ring S5E5 Screenshot


General
Unique ID: 287834554528507820906119287566452263798 (0xD88AEB33D3F2F1F77A441FB33BEA0B76)
Complete name: Dark Side Of The Ring S05E05 1080p VICE WEB-DL AAC2 0 H 264-NTb.mkv
Format: Matroska
Format version: Version 4
File size: 1.86 GiB
Duration: 44 min 12 s
Overall bit rate: 6 012 kb/s
Frame rate: 23.976 FPS
Encoded date: 2024-04-03 02:37:43 UTC
Writing application: mkvmerge v83.0 ('Circle Of Friends') 64-bit
Writing library: libebml v1.4.5 + libmatroska v1.7.1 / Lavf60.16.100

Video
ID: 1
Format: AVC
Format/Info: Advanced Video Codec
Format profile: High@L4
Format settings: CABAC / 5 Ref Frames
Format settings, CABAC: Yes
Format settings, Reference frames: 5 frames
Codec ID: V_MPEG4/ISO/AVC
Duration: 44 min 12 s
Bit rate: 5 884 kb/s
Width: 1 920 pixels
Height: 1 080 pixels
Display aspect ratio: 16:9
Frame rate mode: Constant
Frame rate: 23.976 (24000/1001) FPS
Color space: YUV
Chroma subsampling: 4:2:0
Bit depth: 8 bits
Scan type: Progressive
Bits/(Pixel*Frame): 0.118
Stream size: 1.82 GiB (98%)
Language: English
Default: Yes
Forced: No

Audio
ID: 2
Format: AAC LC
Format/Info: Advanced Audio Codec Low Complexity
Codec ID: A_AAC-2
Duration: 44 min 12 s
Bit rate: 125 kb/s
Channel(s): 2 channels
Channel layout: L R
Sampling rate: 48.0 kHz
Frame rate: 46.875 FPS (1024 SPF)
Compression mode: Lossy
Stream size: 39.6 MiB (2%)
Language: English
Default: Yes
Forced: No

Text
ID: 3
Format: UTF-8
Codec ID: S_TEXT/UTF8
Codec ID/Info: UTF-8 Plain Text
Duration: 43 min 58 s
Bit rate: 111 b/s
Frame rate: 0.370 FPS
Count of elements: 976
Stream size: 36.0 KiB (0%)
Language: English
Default: Yes
Forced: No

ssl  EZTV RSS EZTV Status | EZTV API | DMCA: [email protected]