eztvx.to | eztvstatus.org
Search title:  
TV Packs only
 

The Impossible Heir S01E12 Choice 1080p DSNP WEB-DL DDP5 1 H 264-FLUX EZTV

Episode Breakdown
The Impossible Heir
The Impossible Heir TV Show S01E12

Season: 1
Episode: 12
Air Date: 3 April, 2024
Download Links
     Torrent Download     Magnet Download
     Anonymous Download
Added 11 days ago by eztv (verified).
Tracker Statistics
Seeds: 4
Peers: 0
Stats generated @ 13:53 on 14th Apr 2024
Torrent Info
Torrent File: The Impossible Heir S01E12 Choice 1080p DSNP WEB-DL DDP5 1 H 264-FLUX[EZTVx.to].mkv
Torrent Hash: 813D6E1748D8900270FC887E47A71930163E8ADD
Filesize: 2.28 GB
Released: 3rd Apr 2024

File Format: MKV (Matroska)
Resolution: 1920x1080 px
Aspect Ratio: 16:9
Alternate Releases S L
The Impossible Heir S01E12 720p WEB h264-EDITH 11 1
The Impossible Heir S01E12 480p x264-mSD 5 1
The Impossible Heir S01E12 XviD-AFG 1 1
The Impossible Heir S01E12 1080p WEB h264-EDITH 4 2

The Impossible Heir S01E12 - Choice

Summary:

In fulfilling his desires, Taeoh does not choose anger or forgiveness. His choice is salvation.



The Impossible Heir S01E12 Choice 1080p DSNP WEB-DL DDP5 1 H 264-FLUX EZTV
The Impossible Heir S1E12 Screenshot


General
Unique ID: 282955779929041987432840820920717898246 (0xD4DF4D0B13D4A511DF9C780B67BB7206)
Complete name: The Impossible Heir S01E12 Choice 1080p DSNP WEB-DL DDP5 1 H 264-FLUX.mkv
Format: Matroska
Format version: Version 4
File size: 2.28 GiB
Duration: 58 min 33 s
Overall bit rate mode: Variable
Overall bit rate: 5 571 kb/s
Frame rate: 23.976 FPS
Writing application: mkvmerge v77.0 ('Elemental') 64-bit
Writing library: libebml v1.4.4 + libmatroska v1.7.1

Video
ID: 1
Format: AVC
Format/Info: Advanced Video Codec
Format profile: High@L4
Format settings: CABAC / 4 Ref Frames
Format settings, CABAC: Yes
Format settings, Reference frames: 4 frames
Codec ID: V_MPEG4/ISO/AVC
Duration: 58 min 33 s
Bit rate mode: Variable
Bit rate: 5 311 kb/s
Maximum bit rate: 12.7 Mb/s
Width: 1 920 pixels
Height: 1 080 pixels
Display aspect ratio: 16:9
Frame rate mode: Constant
Frame rate: 23.976 (24000/1001) FPS
Color space: YUV
Chroma subsampling: 4:2:0
Bit depth: 8 bits
Scan type: Progressive
Bits/(Pixel*Frame): 0.107
Time code of first frame: 00:00:00:0000000000
Stream size: 2.17 GiB (95%)
Default: Yes
Forced: No
Color range: Limited
Color primaries: BT.709
Transfer characteristics: BT.709
Matrix coefficients: BT.709

Audio
ID: 2
Format: E-AC-3
Format/Info: Enhanced AC-3
Commercial name: Dolby Digital Plus
Codec ID: A_EAC3
Duration: 58 min 33 s
Bit rate mode: Constant
Bit rate: 256 kb/s
Channel(s): 6 channels
Channel layout: L R C LFE Ls Rs
Sampling rate: 48.0 kHz
Frame rate: 31.250 FPS (1536 SPF)
Compression mode: Lossy
Stream size: 107 MiB (5%)
Language: Korean
Service kind: Complete Main
Default: Yes
Forced: No

Text #1
ID: 3
Format: UTF-8
Codec ID: S_TEXT/UTF8
Codec ID/Info: UTF-8 Plain Text
Duration: 57 min 4 s
Bit rate: 33 b/s
Frame rate: 0.144 FPS
Count of elements: 493
Stream size: 14.1 KiB (0%)
Language: Korean
Default: No
Forced: No

Text #2
ID: 4
Format: UTF-8
Codec ID: S_TEXT/UTF8
Codec ID/Info: UTF-8 Plain Text
Duration: 57 min 58 s
Bit rate: 45 b/s
Frame rate: 0.193 FPS
Count of elements: 671
Stream size: 19.2 KiB (0%)
Title: SDH
Language: Korean
Default: No
Forced: No

Text #3
ID: 5
Format: UTF-8
Codec ID: S_TEXT/UTF8
Codec ID/Info: UTF-8 Plain Text
Duration: 57 min 14 s
Bit rate: 31 b/s
Frame rate: 0.131 FPS
Count of elements: 450
Stream size: 13.0 KiB (0%)
Language: English
Default: No
Forced: No

Text #4
ID: 6
Format: UTF-8
Codec ID: S_TEXT/UTF8
Codec ID/Info: UTF-8 Plain Text
Duration: 57 min 42 s
Bit rate: 36 b/s
Frame rate: 0.156 FPS
Count of elements: 540
Stream size: 15.4 KiB (0%)
Title: SDH
Language: English
Default: No
Forced: No

Text #5
ID: 7
Format: UTF-8
Codec ID: S_TEXT/UTF8
Codec ID/Info: UTF-8 Plain Text
Duration: 58 min 4 s
Bit rate: 27 b/s
Frame rate: 0.130 FPS
Count of elements: 452
Stream size: 11.9 KiB (0%)
Language: Danish
Default: No
Forced: No

Text #6
ID: 8
Format: UTF-8
Codec ID: S_TEXT/UTF8
Codec ID/Info: UTF-8 Plain Text
Duration: 58 min 4 s
Bit rate: 32 b/s
Frame rate: 0.130 FPS
Count of elements: 454
Stream size: 13.9 KiB (0%)
Language: German
Default: No
Forced: No

Text #7
ID: 9
Format: UTF-8
Codec ID: S_TEXT/UTF8
Codec ID/Info: UTF-8 Plain Text
Duration: 58 min 7 s
Bit rate: 31 b/s
Frame rate: 0.131 FPS
Count of elements: 456
Stream size: 13.3 KiB (0%)
Title: Latin American
Language: Spanish (Latin America)
Default: No
Forced: No

Text #8
ID: 10
Format: UTF-8
Codec ID: S_TEXT/UTF8
Codec ID/Info: UTF-8 Plain Text
Duration: 58 min 7 s
Bit rate: 31 b/s
Frame rate: 0.131 FPS
Count of elements: 456
Stream size: 13.2 KiB (0%)
Title: European
Language: Spanish (ES)
Default: No
Forced: No

Text #9
ID: 11
Format: UTF-8
Codec ID: S_TEXT/UTF8
Codec ID/Info: UTF-8 Plain Text
Duration: 58 min 4 s
Bit rate: 29 b/s
Frame rate: 0.130 FPS
Count of elements: 454
Stream size: 12.7 KiB (0%)
Language: Finnish
Default: No
Forced: No

Text #10
ID: 12
Format: UTF-8
Codec ID: S_TEXT/UTF8
Codec ID/Info: UTF-8 Plain Text
Duration: 58 min 7 s
Bit rate: 29 b/s
Frame rate: 0.129 FPS
Count of elements: 451
Stream size: 12.7 KiB (0%)
Title: European
Language: French (FR)
Default: No
Forced: No

Text #11
ID: 13
Format: UTF-8
Codec ID: S_TEXT/UTF8
Codec ID/Info: UTF-8 Plain Text
Duration: 58 min 7 s
Bit rate: 29 b/s
Frame rate: 0.130 FPS
Count of elements: 455
Stream size: 12.7 KiB (0%)
Language: Italian
Default: No
Forced: No

Text #12
ID: 14
Format: UTF-8
Codec ID: S_TEXT/UTF8
Codec ID/Info: UTF-8 Plain Text
Duration: 58 min 7 s
Bit rate: 27 b/s
Frame rate: 0.127 FPS
Count of elements: 443
Stream size: 11.7 KiB (0%)
Language: Japanese
Default: No
Forced: No

Text #13
ID: 15
Format: UTF-8
Codec ID: S_TEXT/UTF8
Codec ID/Info: UTF-8 Plain Text
Duration: 58 min 4 s
Bit rate: 28 b/s
Frame rate: 0.130 FPS
Count of elements: 453
Stream size: 12.1 KiB (0%)
Language: Dutch
Default: No
Forced: No

Text #14
ID: 16
Format: UTF-8
Codec ID: S_TEXT/UTF8
Codec ID/Info: UTF-8 Plain Text
Duration: 58 min 4 s
Bit rate: 30 b/s
Frame rate: 0.130 FPS
Count of elements: 454
Stream size: 12.8 KiB (0%)
Language: Norwegian
Default: No
Forced: No

Text #15
ID: 17
Format: UTF-8
Codec ID: S_TEXT/UTF8
Codec ID/Info: UTF-8 Plain Text
Duration: 58 min 7 s
Bit rate: 29 b/s
Frame rate: 0.130 FPS
Count of elements: 452
Stream size: 12.7 KiB (0%)
Language: Polish
Default: No
Forced: No

Text #16
ID: 18
Format: UTF-8
Codec ID: S_TEXT/UTF8
Codec ID/Info: UTF-8 Plain Text
Duration: 58 min 7 s
Bit rate: 31 b/s
Frame rate: 0.131 FPS
Count of elements: 456
Stream size: 13.6 KiB (0%)
Title: Brazilian
Language: Portuguese (BR)
Default: No
Forced: No

Text #17
ID: 19
Format: UTF-8
Codec ID: S_TEXT/UTF8
Codec ID/Info: UTF-8 Plain Text
Duration: 58 min 7 s
Bit rate: 30 b/s
Frame rate: 0.131 FPS
Count of elements: 456
Stream size: 13.1 KiB (0%)
Title: European
Language: Portuguese (PT)
Default: No
Forced: No

Text #18
ID: 20
Format: UTF-8
Codec ID: S_TEXT/UTF8
Codec ID/Info: UTF-8 Plain Text
Duration: 58 min 4 s
Bit rate: 24 b/s
Frame rate: 0.130 FPS
Count of elements: 454
Stream size: 10.5 KiB (0%)
Language: Swedish
Default: No
Forced: No

Text #19
ID: 21
Format: UTF-8
Codec ID: S_TEXT/UTF8
Codec ID/Info: UTF-8 Plain Text
Duration: 58 min 4 s
Bit rate: 30 b/s
Frame rate: 0.130 FPS
Count of elements: 454
Stream size: 13.0 KiB (0%)
Language: Turkish
Default: No
Forced: No

Text #20
ID: 22
Format: UTF-8
Codec ID: S_TEXT/UTF8
Codec ID/Info: UTF-8 Plain Text
Duration: 58 min 7 s
Bit rate: 27 b/s
Frame rate: 0.131 FPS
Count of elements: 456
Stream size: 11.6 KiB (0%)
Title: Traditional
Language: Chinese (Traditional)
Default: No
Forced: No

Menu
00:00:00.000: en:Chapter 01
00:00:04.004: en:Intro
00:00:30.989: en:Chapter 03
00:09:48.589: en:Chapter 04
00:23:35.290: en:Chapter 05
00:34:50.756: en:Chapter 06
00:45:12.921: en:Chapter 07
00:53:10.148: en:Chapter 08
00:58:04.234: en:Credits

ssl  EZTV RSS EZTV Status | EZTV API | DMCA: [email protected]