eztvx.to | eztvstatus.org
Search title:  
TV Packs only
 

Big Brother Canada S12E13 1080p AMZN WEB-DL DDP5 1 H 264-NTb EZTV

Episode Breakdown
Big Brother Canada
Big Brother Canada TV Show S12E13

Season: 12
Episode: 13
Air Date: 2 April, 2024
Download Links
     Torrent Download     Magnet Download
     Anonymous Download
Added 11 days ago by eztv (verified).
Tracker Statistics
Seeds: 7
Peers: 1
Stats generated @ 14:06 on 14th Apr 2024
Torrent Info
Torrent File: Big Brother Canada S12E13 1080p AMZN WEB-DL DDP5 1 H 264-NTb[EZTVx.to].mkv
Torrent Hash: 8D03D59325AE000A2355278D307431C03907911C
Filesize: 3.25 GB
Released: 3rd Apr 2024

File Format: MKV (Matroska)
Resolution: 1920x1080 px
Aspect Ratio: 16:9
Alternate Releases S L
Big Brother Canada S12E13 480p x264-mSD 3 3
Big Brother Canada S12E13 720p HDTV x264-SYNCOPY 26 4
Big Brother Canada S12E13 720p HEVC x265-MeGusta 7 3
Big Brother Canada S12E13 XviD-AFG 3 1
Big Brother Canada S12E13 720p AMZN WEB-DL DDP5 1 H 264-NTb 3 1

Big Brother Canada S12E13 - Episode 13

Summary:


Big Brother Canada S12E13 1080p AMZN WEB-DL DDP5 1 H 264-NTb EZTV
Big Brother Canada S12E13 Screenshot


General
Unique ID: 299618171735503462427237947164244894058 (0xE1685C62D09FFF3E323E03818FACE16A)
Complete name: Big Brother Canada S12E13 1080p AMZN WEB-DL DDP5 1 H 264-NTb.mkv
Format: Matroska
Format version: Version 4
File size: 3.25 GiB
Duration: 44 min 22 s
Overall bit rate: 10.5 Mb/s
Frame rate: 29.970 FPS
Writing application: mkvmerge v81.0 ('Milliontown') 64-bit
Writing library: libebml v1.4.4 + libmatroska v1.7.1

Video
ID: 1
Format: AVC
Format/Info: Advanced Video Codec
Format profile: High@L4
Format settings: CABAC / 4 Ref Frames
Format settings, CABAC: Yes
Format settings, Reference frames: 4 frames
Codec ID: V_MPEG4/ISO/AVC
Duration: 44 min 22 s
Bit rate mode: Constant
Bit rate: 10 000 kb/s
Width: 1 920 pixels
Height: 1 080 pixels
Display aspect ratio: 16:9
Frame rate mode: Constant
Frame rate: 29.970 (30000/1001) FPS
Color space: YUV
Chroma subsampling: 4:2:0
Bit depth: 8 bits
Scan type: Progressive
Bits/(Pixel*Frame): 0.161
Stream size: 3.05 GiB (94%)
Default: Yes
Forced: No
Color range: Limited
Color primaries: BT.709
Transfer characteristics: BT.709
Matrix coefficients: BT.709

Audio
ID: 2
Format: E-AC-3
Format/Info: Enhanced AC-3
Commercial name: Dolby Digital Plus
Codec ID: A_EAC3
Duration: 44 min 22 s
Bit rate mode: Constant
Bit rate: 640 kb/s
Channel(s): 6 channels
Channel layout: L R C LFE Ls Rs
Sampling rate: 48.0 kHz
Frame rate: 31.250 FPS (1536 SPF)
Compression mode: Lossy
Stream size: 203 MiB (6%)
Language: English (US)
Service kind: Complete Main
Default: Yes
Forced: No

Text #1
ID: 3
Format: UTF-8
Codec ID: S_TEXT/UTF8
Codec ID/Info: UTF-8 Plain Text
Duration: 43 min 54 s
Bit rate: 152 b/s
Frame rate: 0.466 FPS
Count of elements: 1228
Stream size: 49.2 KiB (0%)
Language: English (US)
Default: No
Forced: No

Text #2
ID: 4
Format: UTF-8
Codec ID: S_TEXT/UTF8
Codec ID/Info: UTF-8 Plain Text
Duration: 44 min 18 s
Bit rate: 155 b/s
Frame rate: 0.474 FPS
Count of elements: 1259
Stream size: 50.5 KiB (0%)
Title: SDH
Language: English (US)
Default: No
Forced: No
ssl  EZTV RSS EZTV Status | EZTV API | DMCA: [email protected]