eztvx.to | eztvstatus.org
Search title:  
TV Packs only
 

Sand Land The Series S01E09 The Story of the Angel Hero Part 3 Fiend Power 720p DSNP WEB-DL DDP5 1 H 264-NTb EZTV

Episode Breakdown
Sand Land: The Series
Sand Land: The Series TV Show S01E09

Season: 1
Episode: 9
Air Date: 3 April, 2024
Download Links
     Torrent Download     Magnet Download
     Anonymous Download
Added 11 days ago by eztv (verified).
Tracker Statistics
Seeds: 10
Peers: 0
Stats generated @ 12:30 on 14th Apr 2024
Torrent Info
Torrent File: Sand Land The Series S01E09 The Story of the Angel Hero Part 3 Fiend Power 720p DSNP WEB-DL DDP5 1 H 264-NTb[EZTVx.to].mkv
Torrent Hash: 394DABEA402FAD5CFC27D5D7F2F2F4FF51DE5915
Filesize: 558 MB
Released: 3rd Apr 2024

File Format: MKV (Matroska)
Resolution: 1280x720 px
Aspect Ratio: 16:9
Alternate Releases S L
Sand Land The Series S01E09 The Story of the Angel Hero Part 3 Fiend Power 1080p DSNP WEB-DL DDP5 1 H 264-NTb 5 2
Sand Land The Series S01E09 1080p WEB h264-QUiNTESSENCE 7 3
Sand Land The Series S01E09 480p x264-mSD 2 1
Sand Land The Series S01E09 XviD-AFG 2 0

Sand Land: The Series S01E09 - The Story of the Angel Hero, EP3 : Fiend Power

Summary:
Sand Land The Series S01E09 The Story of the Angel Hero Part 3 Fiend Power 720p DSNP WEB-DL DDP5 1 H 264-NTb EZTV
Sand Land: The Series S1E9 Screenshot


General
Unique ID: 42632300388381305767102508552145491724 (0x2012AEB1376DED9B5E889DC82B4E570C)
Complete name: Sand Land The Series S01E09 The Story of the Angel Hero Part 3 Fiend Power 720p DSNP WEB-DL DDP5 1 H 264-NTb.mkv
Format: Matroska
Format version: Version 4
File size: 558 MiB
Duration: 23 min 52 s
Overall bit rate mode: Variable
Overall bit rate: 3 265 kb/s
Frame rate: 24.000 FPS
Writing application: mkvmerge v81.0 ('Milliontown') 64-bit
Writing library: libebml v1.4.4 + libmatroska v1.7.1

Video
ID: 1
Format: AVC
Format/Info: Advanced Video Codec
Format profile: [email protected]
Format settings: CABAC / 4 Ref Frames
Format settings, CABAC: Yes
Format settings, Reference frames: 4 frames
Codec ID: V_MPEG4/ISO/AVC
Duration: 23 min 52 s
Bit rate mode: Variable
Bit rate: 3 004 kb/s
Maximum bit rate: 6 375 kb/s
Width: 1 280 pixels
Height: 720 pixels
Display aspect ratio: 16:9
Frame rate mode: Constant
Frame rate: 24.000 FPS
Color space: YUV
Chroma subsampling: 4:2:0
Bit depth: 8 bits
Scan type: Progressive
Bits/(Pixel*Frame): 0.136
Time code of first frame: 00:00:00:0000000000
Stream size: 513 MiB (92%)
Default: Yes
Forced: No
Color range: Limited
Color primaries: BT.709
Transfer characteristics: BT.709
Matrix coefficients: BT.709

Audio
ID: 2
Format: E-AC-3
Format/Info: Enhanced AC-3
Commercial name: Dolby Digital Plus
Codec ID: A_EAC3
Duration: 23 min 52 s
Bit rate mode: Constant
Bit rate: 256 kb/s
Channel(s): 6 channels
Channel layout: L R C LFE Ls Rs
Sampling rate: 48.0 kHz
Frame rate: 31.250 FPS (1536 SPF)
Compression mode: Lossy
Stream size: 43.7 MiB (8%)
Language: Japanese
Service kind: Complete Main
Default: Yes
Forced: No

Text #1
ID: 3
Format: UTF-8
Codec ID: S_TEXT/UTF8
Codec ID/Info: UTF-8 Plain Text
Duration: 23 min 45 s
Bit rate: 52 b/s
Frame rate: 0.242 FPS
Count of elements: 345
Stream size: 9.21 KiB (0%)
Language: English
Default: No
Forced: No

Text #2
ID: 4
Format: UTF-8
Codec ID: S_TEXT/UTF8
Codec ID/Info: UTF-8 Plain Text
Duration: 23 min 48 s
Bit rate: 63 b/s
Frame rate: 0.291 FPS
Count of elements: 415
Stream size: 11.1 KiB (0%)
Title: SDH
Language: English
Default: No
Forced: No

Text #3
ID: 5
Format: UTF-8
Codec ID: S_TEXT/UTF8
Codec ID/Info: UTF-8 Plain Text
Duration: 23 min 43 s
Bit rate: 68 b/s
Frame rate: 0.292 FPS
Count of elements: 416
Stream size: 11.9 KiB (0%)
Language: Japanese
Default: No
Forced: No

Text #4
ID: 6
Format: UTF-8
Codec ID: S_TEXT/UTF8
Codec ID/Info: UTF-8 Plain Text
Duration: 23 min 47 s
Bit rate: 81 b/s
Frame rate: 0.310 FPS
Count of elements: 442
Stream size: 14.2 KiB (0%)
Title: SDH
Language: Japanese
Default: No
Forced: No

Text #5
ID: 7
Format: UTF-8
Codec ID: S_TEXT/UTF8
Codec ID/Info: UTF-8 Plain Text
Duration: 23 min 45 s
Bit rate: 52 b/s
Frame rate: 0.236 FPS
Count of elements: 336
Stream size: 9.10 KiB (0%)
Language: Czech
Default: No
Forced: No

Text #6
ID: 8
Format: UTF-8
Codec ID: S_TEXT/UTF8
Codec ID/Info: UTF-8 Plain Text
Duration: 23 min 45 s
Bit rate: 52 b/s
Frame rate: 0.237 FPS
Count of elements: 338
Stream size: 9.05 KiB (0%)
Language: Danish
Default: No
Forced: No

Text #7
ID: 9
Format: UTF-8
Codec ID: S_TEXT/UTF8
Codec ID/Info: UTF-8 Plain Text
Duration: 23 min 45 s
Bit rate: 58 b/s
Frame rate: 0.237 FPS
Count of elements: 338
Stream size: 10.2 KiB (0%)
Language: German
Default: No
Forced: No

Text #8
ID: 10
Format: UTF-8
Codec ID: S_TEXT/UTF8
Codec ID/Info: UTF-8 Plain Text
Duration: 23 min 45 s
Bit rate: 87 b/s
Frame rate: 0.234 FPS
Count of elements: 334
Stream size: 15.3 KiB (0%)
Language: Greek
Default: No
Forced: No

Text #9
ID: 11
Format: UTF-8
Codec ID: S_TEXT/UTF8
Codec ID/Info: UTF-8 Plain Text
Duration: 23 min 45 s
Bit rate: 51 b/s
Frame rate: 0.236 FPS
Count of elements: 336
Stream size: 8.90 KiB (0%)
Title: Spanish (Latin America)
Language: Spanish (Latin America)
Default: No
Forced: No

Text #10
ID: 12
Format: UTF-8
Codec ID: S_TEXT/UTF8
Codec ID/Info: UTF-8 Plain Text
Duration: 23 min 45 s
Bit rate: 57 b/s
Frame rate: 0.235 FPS
Count of elements: 335
Stream size: 10.0 KiB (0%)
Title: Spanish (Spain)
Language: Spanish (ES)
Default: No
Forced: No

Text #11
ID: 13
Format: UTF-8
Codec ID: S_TEXT/UTF8
Codec ID/Info: UTF-8 Plain Text
Duration: 23 min 45 s
Bit rate: 48 b/s
Frame rate: 0.234 FPS
Count of elements: 334
Stream size: 8.38 KiB (0%)
Language: Finnish
Default: No
Forced: No

Text #12
ID: 14
Format: UTF-8
Codec ID: S_TEXT/UTF8
Codec ID/Info: UTF-8 Plain Text
Duration: 23 min 45 s
Bit rate: 56 b/s
Frame rate: 0.230 FPS
Count of elements: 328
Stream size: 9.82 KiB (0%)
Language: French (FR)
Default: No
Forced: No

Text #13
ID: 15
Format: UTF-8
Codec ID: S_TEXT/UTF8
Codec ID/Info: UTF-8 Plain Text
Duration: 23 min 45 s
Bit rate: 53 b/s
Frame rate: 0.232 FPS
Count of elements: 330
Stream size: 9.23 KiB (0%)
Language: Hungarian
Default: No
Forced: No

Text #14
ID: 16
Format: UTF-8
Codec ID: S_TEXT/UTF8
Codec ID/Info: UTF-8 Plain Text
Duration: 23 min 45 s
Bit rate: 51 b/s
Frame rate: 0.232 FPS
Count of elements: 331
Stream size: 8.90 KiB (0%)
Language: Italian
Default: No
Forced: No

Text #15
ID: 17
Format: UTF-8
Codec ID: S_TEXT/UTF8
Codec ID/Info: UTF-8 Plain Text
Duration: 23 min 45 s
Bit rate: 60 b/s
Frame rate: 0.244 FPS
Count of elements: 348
Stream size: 10.4 KiB (0%)
Language: Korean
Default: No
Forced: No

Text #16
ID: 18
Format: UTF-8
Codec ID: S_TEXT/UTF8
Codec ID/Info: UTF-8 Plain Text
Duration: 23 min 48 s
Bit rate: 75 b/s
Frame rate: 0.293 FPS
Count of elements: 418
Stream size: 13.2 KiB (0%)
Title: SDH
Language: Korean
Default: No
Forced: No

Text #17
ID: 19
Format: UTF-8
Codec ID: S_TEXT/UTF8
Codec ID/Info: UTF-8 Plain Text
Duration: 23 min 45 s
Bit rate: 50 b/s
Frame rate: 0.202 FPS
Count of elements: 288
Stream size: 8.81 KiB (0%)
Language: Dutch
Default: No
Forced: No

Text #18
ID: 20
Format: UTF-8
Codec ID: S_TEXT/UTF8
Codec ID/Info: UTF-8 Plain Text
Duration: 23 min 45 s
Bit rate: 47 b/s
Frame rate: 0.227 FPS
Count of elements: 324
Stream size: 8.31 KiB (0%)
Language: Norwegian
Default: No
Forced: No

Text #19
ID: 21
Format: UTF-8
Codec ID: S_TEXT/UTF8
Codec ID/Info: UTF-8 Plain Text
Duration: 23 min 45 s
Bit rate: 48 b/s
Frame rate: 0.222 FPS
Count of elements: 317
Stream size: 8.47 KiB (0%)
Language: Polish
Default: No
Forced: No

Text #20
ID: 22
Format: UTF-8
Codec ID: S_TEXT/UTF8
Codec ID/Info: UTF-8 Plain Text
Duration: 23 min 45 s
Bit rate: 52 b/s
Frame rate: 0.234 FPS
Count of elements: 333
Stream size: 9.20 KiB (0%)
Title: Portuguese (Brazil)
Language: Portuguese (BR)
Default: No
Forced: No

Text #21
ID: 23
Format: UTF-8
Codec ID: S_TEXT/UTF8
Codec ID/Info: UTF-8 Plain Text
Duration: 23 min 45 s
Bit rate: 55 b/s
Frame rate: 0.237 FPS
Count of elements: 338
Stream size: 9.65 KiB (0%)
Title: Portuguese (Portugal)
Language: Portuguese (PT)
Default: No
Forced: No

Text #22
ID: 24
Format: UTF-8
Codec ID: S_TEXT/UTF8
Codec ID/Info: UTF-8 Plain Text
Duration: 23 min 45 s
Bit rate: 51 b/s
Frame rate: 0.183 FPS
Count of elements: 261
Stream size: 8.92 KiB (0%)
Language: Romanian
Default: No
Forced: No

Text #23
ID: 25
Format: UTF-8
Codec ID: S_TEXT/UTF8
Codec ID/Info: UTF-8 Plain Text
Duration: 23 min 45 s
Bit rate: 47 b/s
Frame rate: 0.236 FPS
Count of elements: 336
Stream size: 8.27 KiB (0%)
Language: Slovak
Default: No
Forced: No

Text #24
ID: 26
Format: UTF-8
Codec ID: S_TEXT/UTF8
Codec ID/Info: UTF-8 Plain Text
Duration: 23 min 45 s
Bit rate: 49 b/s
Frame rate: 0.236 FPS
Count of elements: 337
Stream size: 8.67 KiB (0%)
Language: Swedish
Default: No
Forced: No

Text #25
ID: 27
Format: UTF-8
Codec ID: S_TEXT/UTF8
Codec ID/Info: UTF-8 Plain Text
Duration: 23 min 45 s
Bit rate: 52 b/s
Frame rate: 0.232 FPS
Count of elements: 330
Stream size: 9.16 KiB (0%)
Language: Turkish
Default: No
Forced: No

Text #26
ID: 28
Format: UTF-8
Codec ID: S_TEXT/UTF8
Codec ID/Info: UTF-8 Plain Text
Duration: 23 min 45 s
Bit rate: 45 b/s
Frame rate: 0.237 FPS
Count of elements: 338
Stream size: 7.94 KiB (0%)
Language: Chinese (Traditional)
Default: No
Forced: No

ssl  EZTV RSS EZTV Status | EZTV API | DMCA: [email protected]