eztvx.to | eztvstatus.org
Search title:  
TV Packs only
 

Star Wars The Bad Batch S03E10 Identity Crisis 1080p DSNP WEB-DL DDP5 1 H 264-NTb EZTV

Episode Breakdown
Star Wars: The Bad Batch
Star Wars: The Bad Batch TV Show S03E10

Season: 3
Episode: 10
Air Date: 3 April, 2024
Download Links
     Torrent Download     Magnet Download
     Anonymous Download
Added 11 days ago by eztv (verified).
Tracker Statistics
Seeds: 49
Peers: 11
Stats generated @ 12:26 on 14th Apr 2024
Torrent Info
Torrent File: Star Wars The Bad Batch S03E10 Identity Crisis 1080p DSNP WEB-DL DDP5 1 H 264-NTb[EZTVx.to].mkv
Torrent Hash: 7E74263511182890DE97B46FB4D759B57D91E65E
Filesize: 1.13 GB
Released: 3rd Apr 2024

File Format: MKV (Matroska)
Resolution: 1920x1080 px
Aspect Ratio: 16:9
Alternate Releases S L
Star Wars The Bad Batch S03E10 720p WEB h264-EDITH 111 22
Star Wars the Bad Batch S03E10 1080p WEB H264-RVKD 451 60
Star Wars the Bad Batch S03E10 1080p HEVC x265-MeGusta 135 18
Star Wars The Bad Batch S03E10 480p x264-mSD 17 9
Star Wars The Bad Batch S03E10 MULTi 1080p WEB H264-D4KiD 24 5
Star Wars The Bad Batch S03E10 XviD-AFG 13 5
Star Wars The Bad Batch S03E10 720p x264-FENiX 22 4

Star Wars: The Bad Batch S03E10 - Identity Crisis

Summary:

Emerie confronts the dark secrets behind Hemlock's scientific research.



Star Wars The Bad Batch S03E10 Identity Crisis 1080p DSNP WEB-DL DDP5 1 H 264-NTb EZTV
Star Wars: The Bad Batch S3E10 Screenshot


General
Unique ID: 128588636381978621517464422281459986634 (0x60BD45418F0B9DD3A942EACE2946F0CA)
Complete name: Star Wars The Bad Batch S03E10 Identity Crisis 1080p DSNP WEB-DL DDP5 1 H 264-NTb.mkv
Format: Matroska
Format version: Version 4
File size: 1.13 GiB
Duration: 23 min 18 s
Overall bit rate mode: Variable
Overall bit rate: 6 969 kb/s
Frame rate: 24.000 FPS
Writing application: mkvmerge v81.0 ('Milliontown') 64-bit
Writing library: libebml v1.4.4 + libmatroska v1.7.1

Video
ID: 1
Format: AVC
Format/Info: Advanced Video Codec
Format profile: High@L4
Format settings: CABAC / 4 Ref Frames
Format settings, CABAC: Yes
Format settings, Reference frames: 4 frames
Codec ID: V_MPEG4/ISO/AVC
Duration: 23 min 18 s
Bit rate mode: Variable
Bit rate: 6 709 kb/s
Maximum bit rate: 12.7 Mb/s
Width: 1 920 pixels
Height: 1 080 pixels
Display aspect ratio: 16:9
Frame rate mode: Constant
Frame rate: 24.000 FPS
Color space: YUV
Chroma subsampling: 4:2:0
Bit depth: 8 bits
Scan type: Progressive
Bits/(Pixel*Frame): 0.135
Time code of first frame: 00:00:00:0000000000
Stream size: 1.09 GiB (96%)
Default: Yes
Forced: No
Color range: Limited
Color primaries: BT.709
Transfer characteristics: BT.709
Matrix coefficients: BT.709

Audio
ID: 2
Format: E-AC-3
Format/Info: Enhanced AC-3
Commercial name: Dolby Digital Plus
Codec ID: A_EAC3
Duration: 23 min 18 s
Bit rate mode: Constant
Bit rate: 256 kb/s
Channel(s): 6 channels
Channel layout: L R C LFE Ls Rs
Sampling rate: 48.0 kHz
Frame rate: 31.250 FPS (1536 SPF)
Compression mode: Lossy
Stream size: 42.7 MiB (4%)
Language: English
Service kind: Complete Main
Default: Yes
Forced: No

Text #1
ID: 3
Format: UTF-8
Codec ID: S_TEXT/UTF8
Codec ID/Info: UTF-8 Plain Text
Duration: 19 min 26 s
Bit rate: 41 b/s
Frame rate: 0.159 FPS
Count of elements: 186
Stream size: 5.85 KiB (0%)
Language: English
Default: No
Forced: No

Text #2
ID: 4
Format: UTF-8
Codec ID: S_TEXT/UTF8
Codec ID/Info: UTF-8 Plain Text
Duration: 20 min 53 s
Bit rate: 46 b/s
Frame rate: 0.199 FPS
Count of elements: 250
Stream size: 7.13 KiB (0%)
Title: SDH
Language: English
Default: No
Forced: No

Text #3
ID: 5
Format: UTF-8
Codec ID: S_TEXT/UTF8
Codec ID/Info: UTF-8 Plain Text
Duration: 22 min 44 s
Bit rate: 32 b/s
Frame rate: 0.130 FPS
Count of elements: 177
Stream size: 5.38 KiB (0%)
Language: Czech
Default: No
Forced: No

Text #4
ID: 6
Format: UTF-8
Codec ID: S_TEXT/UTF8
Codec ID/Info: UTF-8 Plain Text
Duration: 22 min 44 s
Bit rate: 34 b/s
Frame rate: 0.137 FPS
Count of elements: 187
Stream size: 5.78 KiB (0%)
Language: Danish
Default: No
Forced: No

Text #5
ID: 7
Format: UTF-8
Codec ID: S_TEXT/UTF8
Codec ID/Info: UTF-8 Plain Text
Duration: 22 min 41 s
Bit rate: 33 b/s
Frame rate: 0.133 FPS
Count of elements: 181
Stream size: 5.54 KiB (0%)
Language: German
Default: No
Forced: No

Text #6
ID: 8
Format: UTF-8
Codec ID: S_TEXT/UTF8
Codec ID/Info: UTF-8 Plain Text
Duration: 22 min 16 s
Bit rate: 61 b/s
Frame rate: 0.137 FPS
Count of elements: 183
Stream size: 10.0 KiB (0%)
Language: Greek
Default: No
Forced: No

Text #7
ID: 9
Format: UTF-8
Codec ID: S_TEXT/UTF8
Codec ID/Info: UTF-8 Plain Text
Duration: 22 min 41 s
Bit rate: 34 b/s
Frame rate: 0.137 FPS
Count of elements: 186
Stream size: 5.66 KiB (0%)
Title: Spanish (Latin America)
Language: Spanish (Latin America)
Default: No
Forced: No

Text #8
ID: 10
Format: UTF-8
Codec ID: S_TEXT/UTF8
Codec ID/Info: UTF-8 Plain Text
Duration: 22 min 44 s
Bit rate: 34 b/s
Frame rate: 0.137 FPS
Count of elements: 187
Stream size: 5.71 KiB (0%)
Title: Spanish (Spain)
Language: Spanish (ES)
Default: No
Forced: No

Text #9
ID: 11
Format: UTF-8
Codec ID: S_TEXT/UTF8
Codec ID/Info: UTF-8 Plain Text
Duration: 22 min 41 s
Bit rate: 32 b/s
Frame rate: 0.135 FPS
Count of elements: 184
Stream size: 5.34 KiB (0%)
Language: Finnish
Default: No
Forced: No

Text #10
ID: 12
Format: UTF-8
Codec ID: S_TEXT/UTF8
Codec ID/Info: UTF-8 Plain Text
Duration: 22 min 41 s
Bit rate: 35 b/s
Frame rate: 0.137 FPS
Count of elements: 186
Stream size: 5.86 KiB (0%)
Language: French (FR)
Default: No
Forced: No

Text #11
ID: 13
Format: UTF-8
Codec ID: S_TEXT/UTF8
Codec ID/Info: UTF-8 Plain Text
Duration: 22 min 44 s
Bit rate: 33 b/s
Frame rate: 0.136 FPS
Count of elements: 186
Stream size: 5.64 KiB (0%)
Language: Hungarian
Default: No
Forced: No

Text #12
ID: 14
Format: UTF-8
Codec ID: S_TEXT/UTF8
Codec ID/Info: UTF-8 Plain Text
Duration: 22 min 41 s
Bit rate: 35 b/s
Frame rate: 0.134 FPS
Count of elements: 182
Stream size: 5.83 KiB (0%)
Language: Italian
Default: No
Forced: No

Text #13
ID: 15
Format: UTF-8
Codec ID: S_TEXT/UTF8
Codec ID/Info: UTF-8 Plain Text
Duration: 22 min 52 s
Bit rate: 33 b/s
Frame rate: 0.142 FPS
Count of elements: 195
Stream size: 5.57 KiB (0%)
Language: Japanese
Default: No
Forced: No

Text #14
ID: 16
Format: UTF-8
Codec ID: S_TEXT/UTF8
Codec ID/Info: UTF-8 Plain Text
Duration: 22 min 55 s
Bit rate: 37 b/s
Frame rate: 0.137 FPS
Count of elements: 188
Stream size: 6.22 KiB (0%)
Language: Korean
Default: No
Forced: No

Text #15
ID: 17
Format: UTF-8
Codec ID: S_TEXT/UTF8
Codec ID/Info: UTF-8 Plain Text
Duration: 22 min 41 s
Bit rate: 32 b/s
Frame rate: 0.114 FPS
Count of elements: 155
Stream size: 5.41 KiB (0%)
Language: Dutch
Default: No
Forced: No

Text #16
ID: 18
Format: UTF-8
Codec ID: S_TEXT/UTF8
Codec ID/Info: UTF-8 Plain Text
Duration: 22 min 44 s
Bit rate: 34 b/s
Frame rate: 0.136 FPS
Count of elements: 185
Stream size: 5.68 KiB (0%)
Language: Norwegian
Default: No
Forced: No

Text #17
ID: 19
Format: UTF-8
Codec ID: S_TEXT/UTF8
Codec ID/Info: UTF-8 Plain Text
Duration: 22 min 55 s
Bit rate: 32 b/s
Frame rate: 0.136 FPS
Count of elements: 187
Stream size: 5.47 KiB (0%)
Language: Polish
Default: No
Forced: No

Text #18
ID: 20
Format: UTF-8
Codec ID: S_TEXT/UTF8
Codec ID/Info: UTF-8 Plain Text
Duration: 22 min 41 s
Bit rate: 35 b/s
Frame rate: 0.134 FPS
Count of elements: 182
Stream size: 5.98 KiB (0%)
Title: Portuguese (Brazil)
Language: Portuguese (BR)
Default: No
Forced: No

Text #19
ID: 21
Format: UTF-8
Codec ID: S_TEXT/UTF8
Codec ID/Info: UTF-8 Plain Text
Duration: 22 min 44 s
Bit rate: 35 b/s
Frame rate: 0.137 FPS
Count of elements: 187
Stream size: 5.99 KiB (0%)
Title: Portuguese (Portugal)
Language: Portuguese (PT)
Default: No
Forced: No

Text #20
ID: 22
Format: UTF-8
Codec ID: S_TEXT/UTF8
Codec ID/Info: UTF-8 Plain Text
Duration: 22 min 55 s
Bit rate: 34 b/s
Frame rate: 0.126 FPS
Count of elements: 174
Stream size: 5.76 KiB (0%)
Language: Romanian
Default: No
Forced: No

Text #21
ID: 23
Format: UTF-8
Codec ID: S_TEXT/UTF8
Codec ID/Info: UTF-8 Plain Text
Duration: 22 min 44 s
Bit rate: 32 b/s
Frame rate: 0.137 FPS
Count of elements: 187
Stream size: 5.47 KiB (0%)
Language: Slovak
Default: No
Forced: No

Text #22
ID: 24
Format: UTF-8
Codec ID: S_TEXT/UTF8
Codec ID/Info: UTF-8 Plain Text
Duration: 22 min 44 s
Bit rate: 35 b/s
Frame rate: 0.137 FPS
Count of elements: 187
Stream size: 5.92 KiB (0%)
Language: Swedish
Default: No
Forced: No

Text #23
ID: 25
Format: UTF-8
Codec ID: S_TEXT/UTF8
Codec ID/Info: UTF-8 Plain Text
Duration: 22 min 55 s
Bit rate: 27 b/s
Frame rate: 0.137 FPS
Count of elements: 188
Stream size: 4.68 KiB (0%)
Title: Chinese (Hong Kong SAR China)
Language: Chinese (HK)
Default: No
Forced: No

Text #24
ID: 26
Format: UTF-8
Codec ID: S_TEXT/UTF8
Codec ID/Info: UTF-8 Plain Text
Duration: 22 min 55 s
Bit rate: 28 b/s
Frame rate: 0.137 FPS
Count of elements: 188
Stream size: 4.79 KiB (0%)
Title: Chinese (Traditional)
Language: Chinese (Traditional)
Default: No
Forced: No

ssl  EZTV RSS EZTV Status | EZTV API | DMCA: [email protected]