eztvx.to | eztvstatus.org
Search title:  
TV Packs only
 

Fabricante de ovnis S01E10 Alien Hunt 720p DSNP WEB-DL DD 5 1 H 264-playWEB EZTV

Episode Breakdown
Other TV Shows
Other TV Shows TV Show S01E10

Season: 1
Episode: 10
Download Links
     Torrent Download     Magnet Download
     Anonymous Download
Added 11 days ago by eztv (verified).
Tracker Statistics
Seeds: 1
Peers: 1
Stats generated @ 13:00 on 14th Apr 2024
Torrent Info
Torrent File: Fabricante de ovnis S01E10 Alien Hunt 720p DSNP WEB-DL DD 5 1 H 264-playWEB[EZTVx.to].mkv
Torrent Hash: C64000F7875D999AB6871BBD6ED5BFACBF4F738D
Filesize: 753 MB
Released: 3rd Apr 2024

File Format: MKV (Matroska)
Resolution: 1280x720 px
Aspect Ratio: 16:9

Episode Description
Fabricante de ovnis S01E10 Alien Hunt 720p DSNP WEB-DL DD 5 1 H 264-playWEB EZTV
Other TV Shows S1E10 Screenshot


General
Unique ID: 232995256149922321097099049012076762940 (0xAF49410ADBAA5586698B9FA2B1B4573C)
Complete name: Fabricante de ovnis S01E10 Alien Hunt 720p DSNP WEB-DL DD 5 1 H 264-playWEB.mkv
Format: Matroska
Format version: Version 4
File size: 753 MiB
Duration: 27 min 28 s
Overall bit rate mode: Variable
Overall bit rate: 3 833 kb/s
Frame rate: 23.976 FPS
Writing application: mkvmerge v83.0 ('Circle Of Friends') 64-bit
Writing library: libebml v1.4.5 + libmatroska v1.7.1

Video
ID: 1
Format: AVC
Format/Info: Advanced Video Codec
Format profile: [email protected]
Format settings: CABAC / 4 Ref Frames
Format settings, CABAC: Yes
Format settings, Reference frames: 4 frames
Codec ID: V_MPEG4/ISO/AVC
Duration: 27 min 28 s
Bit rate mode: Variable
Bit rate: 3 575 kb/s
Maximum bit rate: 6 375 kb/s
Width: 1 280 pixels
Height: 720 pixels
Display aspect ratio: 16:9
Frame rate mode: Constant
Frame rate: 23.976 (24000/1001) FPS
Color space: YUV
Chroma subsampling: 4:2:0
Bit depth: 8 bits
Scan type: Progressive
Bits/(Pixel*Frame): 0.162
Time code of first frame: 00:00:00:0000000000
Stream size: 702 MiB (93%)
Default: Yes
Forced: No
Color range: Limited
Color primaries: BT.709
Transfer characteristics: BT.709
Matrix coefficients: BT.709

Audio
ID: 2
Format: E-AC-3
Format/Info: Enhanced AC-3
Commercial name: Dolby Digital Plus
Codec ID: A_EAC3
Duration: 27 min 28 s
Bit rate mode: Constant
Bit rate: 256 kb/s
Channel(s): 6 channels
Channel layout: L R C LFE Ls Rs
Sampling rate: 48.0 kHz
Frame rate: 31.250 FPS (1536 SPF)
Compression mode: Lossy
Stream size: 50.3 MiB (7%)
Title: Latin American
Language: Spanish
Service kind: Complete Main
Default: Yes
Forced: No

Text #1
ID: 3
Format: UTF-8
Codec ID: S_TEXT/UTF8
Codec ID/Info: UTF-8 Plain Text
Duration: 27 min 16 s
Bit rate: 53 b/s
Frame rate: 0.234 FPS
Count of elements: 383
Stream size: 10.6 KiB (0%)
Language: English
Default: No
Forced: No

Text #2
ID: 4
Format: UTF-8
Codec ID: S_TEXT/UTF8
Codec ID/Info: UTF-8 Plain Text
Duration: 27 min 25 s
Bit rate: 58 b/s
Frame rate: 0.250 FPS
Count of elements: 411
Stream size: 11.8 KiB (0%)
Title: SDH
Language: English
Default: No
Forced: No

Text #3
ID: 5
Format: UTF-8
Codec ID: S_TEXT/UTF8
Codec ID/Info: UTF-8 Plain Text
Duration: 25 min 52 s
Bit rate: 64 b/s
Frame rate: 0.248 FPS
Count of elements: 385
Stream size: 12.1 KiB (0%)
Language: Spanish
Default: No
Forced: No

Text #4
ID: 6
Format: UTF-8
Codec ID: S_TEXT/UTF8
Codec ID/Info: UTF-8 Plain Text
Duration: 25 min 58 s
Bit rate: 71 b/s
Frame rate: 0.264 FPS
Count of elements: 411
Stream size: 13.5 KiB (0%)
Title: Latin American (SDH)
Language: Spanish
Default: No
Forced: No

Text #5
ID: 7
Format: UTF-8
Codec ID: S_TEXT/UTF8
Codec ID/Info: UTF-8 Plain Text
Duration: 27 min 16 s
Bit rate: 53 b/s
Frame rate: 0.229 FPS
Count of elements: 375
Stream size: 10.7 KiB (0%)
Title: Brazilian
Language: Portuguese
Default: No
Forced: No

Menu
00:01:42.811: en:Intro
00:01:46.148: en:Scene 1
00:26:30.007: en:Credits
ssl  EZTV RSS EZTV Status | EZTV API | DMCA: [email protected]