eztvx.to | eztvstatus.org
Search title:  
TV Packs only
 

FBI Most Wanted S05E07 720p x264-FENiX EZTV

Episode Breakdown
FBI: Most Wanted
FBI: Most Wanted TV Show S05E07

Season: 5
Episode: 7
Air Date: 2 April, 2024
Download Links
     Torrent Download     Magnet Download
     Anonymous Download
Added 11 days ago by eztv (verified).
Tracker Statistics
Seeds: 11
Peers: 0
Stats generated @ 12:10 on 14th Apr 2024
Torrent Info
Torrent File: FBI Most Wanted S05E07 720p x264-FENiX[EZTVx.to].mkv
Torrent Hash: DD39C19531BE70DFA987B71A1D096B3A004E7257
Filesize: 471 MB
Released: 3rd Apr 2024

File Format: MKV (Matroska)
Resolution: 1280x720 px
Aspect Ratio: 16:9
Alternate Releases S L
FBI Most Wanted S05E07 720p HDTV x264-SYNCOPY 121 27
FBI Most Wanted S05E07 480p x264-mSD 41 10
FBI Most Wanted S05E07 720p HEVC x265-MeGusta 51 14
FBI Most Wanted S05E07 XviD-AFG 28 4
FBI Most Wanted S05E07 Rendition 1080p AMZN WEB-DL DDP5 1 H 264-FLUX 75 12
FBI Most Wanted S05E07 Rendition 720p AMZN WEB-DL DDP5 1 H 264-FLUX 8 4
FBI Most Wanted S05E07 1080p WEB h264-ETHEL 8 4

FBI: Most Wanted S05E07 - Rendition

Summary:

The Fugitive Task Force springs into action after four detectives are shot dead during a prisoner exchange outside of a diner in New Jersey. Meanwhile, Remy struggles with having Corey as a roommate.



FBI Most Wanted S05E07 720p x264-FENiX EZTV
FBI: Most Wanted S5E7 Screenshot


General
Unique ID: 301618983533101260989705678485474222798 (0xE2E9B4061BB444BB5B2096DB1127A2CE)
Complete name: FBI Most Wanted S05E07 720p x264-FENiX.mkv
Format: Matroska
Format version: Version 4
File size: 471 MiB
Duration: 42 min 44 s
Overall bit rate: 1 541 kb/s
Frame rate: 23.976 FPS
Movie name: FBI.Most.Wanted.S05E07
Writing application: Lavf60.16.100
Writing library: Lavf60.16.100
Comment: FENiX-Wed-03-Apr-2024,07:31:23,720p,22,fast,N,7228761,1920,1080,1.78
ErrorDetectionType: Per level 1

Video
ID: 1
Format: AVC
Format/Info: Advanced Video Codec
Format profile: [email protected]
Format settings: CABAC / 4 Ref Frames
Format settings, CABAC: Yes
Format settings, Reference frames: 4 frames
Codec ID: V_MPEG4/ISO/AVC
Duration: 42 min 44 s
Bit rate: 1 062 kb/s
Width: 1 280 pixels
Height: 720 pixels
Display aspect ratio: 16:9
Frame rate mode: Constant
Frame rate: 23.976 (24000/1001) FPS
Color space: YUV
Chroma subsampling: 4:2:0
Bit depth: 8 bits
Scan type: Progressive
Bits/(Pixel*Frame): 0.048
Stream size: 325 MiB (69%)
Writing library: x264 core 164
Encoding settings: cabac=1 / ref=2 / deblock=1:0:0 / analyse=0x3:0x113 / me=hex / subme=6 / psy=1 / psy_rd=1.00:0.00 / mixed_ref=1 / me_range=16 / chroma_me=1 / trellis=1 / 8x8dct=1 / cqm=0 / deadzone=21,11 / fast_pskip=1 / chroma_qp_offset=-2 / threads=22 / lookahead_threads=3 / sliced_threads=0 / nr=0 / decimate=1 / interlaced=0 / bluray_compat=0 / constrained_intra=0 / bframes=3 / b_pyramid=2 / b_adapt=1 / b_bias=0 / direct=1 / weightb=1 / open_gop=0 / weightp=1 / keyint=250 / keyint_min=23 / scenecut=40 / intra_refresh=0 / rc_lookahead=30 / rc=crf / mbtree=1 / crf=22.0 / qcomp=0.60 / qpmin=0 / qpmax=69 / qpstep=4 / ip_ratio=1.40 / aq=1:1.00
Default: Yes
Forced: No
Color range: Limited
Color primaries: BT.709
Transfer characteristics: BT.709
Matrix coefficients: BT.709

Audio
ID: 2
Format: AC-3
Format/Info: Audio Coding 3
Commercial name: Dolby Digital
Codec ID: A_AC3
Duration: 42 min 44 s
Bit rate mode: Constant
Bit rate: 448 kb/s
Channel(s): 6 channels
Channel layout: L R C LFE Ls Rs
Sampling rate: 48.0 kHz
Frame rate: 31.250 FPS (1536 SPF)
Bit depth: 32 bits
Compression mode: Lossy
Stream size: 137 MiB (29%)
Writing library: Lavc60.31.102 ac3
Language: English
Service kind: Complete Main
Default: Yes
Forced: No

Text
ID: 3
Format: UTF-8
Codec ID: S_TEXT/UTF8
Codec ID/Info: UTF-8 Plain Text
Duration: 42 min 40 s
Language: English
Default: No
Forced: No

ssl  EZTV RSS EZTV Status | EZTV API | DMCA: [email protected]