eztvx.to | eztvstatus.org
Search title:  
TV Packs only
 

NCIS Hawaii S03E06 Operation Red Rabbit 1080p AMZN WEB-DL DDP5 1 H 264-FLUX EZTV

Episode Breakdown
NCIS: Hawai'i
NCIS: Hawai'i TV Show S03E06

Season: 3
Episode: 6
Air Date: 1 April, 2024
Download Links
     Torrent Download     Magnet Download
     Anonymous Download
Added 17 days ago by eztv (verified).
Tracker Statistics
Seeds: 9
Peers: 8
Stats generated @ 03:02 on 21st Apr 2024
Torrent Info
Torrent File: NCIS Hawaii S03E06 Operation Red Rabbit 1080p AMZN WEB-DL DDP5 1 H 264-FLUX[EZTVx.to].mkv
Torrent Hash: 41D0F1135D6756AB2D58D8CDA1D3E057863E870B
Filesize: 2.26 GB
Released: 3rd Apr 2024

File Format: MKV (Matroska)
Resolution: 1920x1080 px
Aspect Ratio: 16:9
Alternate Releases S L
NCIS Hawaii S03E06 720p HDTV x264-SYNCOPY 89 4
NCIS Hawaii S03E06 480p x264-mSD 27 7
NCIS Hawaii S03E06 720p HEVC x265-MeGusta 30 12
NCIS Hawaii S03E06 1080p WEB h264-ELEANOR 43 6
NCIS Hawaii S03E06 1080p HEVC x265-MeGusta 53 10
NCIS Hawaii S03E06 Operation Red Rabbit 720p AMZN WEB-DL DDP5 1 H 264-NTb 14 4
NCIS Hawaii S03E06 Operation Red Rabbit 1080p AMZN WEB-DL DDP5 1 H 264-NTb 14 7

NCIS: Hawai'i S03E06 - Operation Red Rabbit

Summary:

When the fiancée of a vanished naval officer seeks the help of NCIS, the team reveals his secrets go much deeper than she suspected. Meanwhile, Sam recruits Kai to be his wingman.



NCIS Hawaii S03E06 Operation Red Rabbit 1080p AMZN WEB-DL DDP5 1 H 264-FLUX EZTV
NCIS: Hawai'i S3E6 Screenshot


General
Unique ID: 173829701708522784282297345369393412979 (0x82C661FD815DF5449A0C1E8916753B73)
Complete name: NCIS Hawaii S03E06 Operation Red Rabbit 1080p AMZN WEB-DL DDP5 1 H 264-FLUX.mkv
Format: Matroska
Format version: Version 4
File size: 2.26 GiB
Duration: 42 min 54 s
Overall bit rate: 7 558 kb/s
Frame rate: 23.976 FPS
Writing application: mkvmerge v82.0 ('I'm The President') 64-bit
Writing library: libebml v1.4.5 + libmatroska v1.7.1

Video
ID: 1
Format: AVC
Format/Info: Advanced Video Codec
Format profile: High@L4
Format settings: CABAC / 4 Ref Frames
Format settings, CABAC: Yes
Format settings, Reference frames: 4 frames
Codec ID: V_MPEG4/ISO/AVC
Duration: 42 min 54 s
Bit rate mode: Constant
Bit rate: 6 915 kb/s
Nominal bit rate: 10 000 kb/s
Width: 1 920 pixels
Height: 1 080 pixels
Display aspect ratio: 16:9
Frame rate mode: Constant
Frame rate: 23.976 (24000/1001) FPS
Color space: YUV
Chroma subsampling: 4:2:0
Bit depth: 8 bits
Scan type: Progressive
Bits/(Pixel*Frame): 0.139
Stream size: 2.07 GiB (91%)
Language: English (US)
Default: Yes
Forced: No
Color range: Limited
Color primaries: BT.709
Transfer characteristics: BT.709
Matrix coefficients: BT.709

Audio
ID: 2
Format: E-AC-3
Format/Info: Enhanced AC-3
Commercial name: Dolby Digital Plus
Codec ID: A_EAC3
Duration: 42 min 54 s
Bit rate mode: Constant
Bit rate: 640 kb/s
Channel(s): 6 channels
Channel layout: L R C LFE Ls Rs
Sampling rate: 48.0 kHz
Frame rate: 31.250 FPS (1536 SPF)
Compression mode: Lossy
Stream size: 196 MiB (8%)
Language: English
Service kind: Complete Main
Default: Yes
Forced: No

Text #1
ID: 3
Format: UTF-8
Codec ID: S_TEXT/UTF8
Codec ID/Info: UTF-8 Plain Text
Duration: 42 min 28 s
Bit rate: 95 b/s
Frame rate: 0.398 FPS
Count of elements: 1014
Stream size: 29.7 KiB (0%)
Language: English (US)
Default: No
Forced: No

Text #2
ID: 4
Format: UTF-8
Codec ID: S_TEXT/UTF8
Codec ID/Info: UTF-8 Plain Text
Duration: 42 min 33 s
Bit rate: 99 b/s
Frame rate: 0.414 FPS
Count of elements: 1057
Stream size: 31.1 KiB (0%)
Title: SDH
Language: English (US)
Default: No
Forced: No

Menu
00:00:10.000: en:Scene 1
00:42:49.000: en:End Credits

ssl  EZTV RSS EZTV Status | EZTV API | DMCA: [email protected]