eztvx.to | eztvstatus.org
Search title:  
TV Packs only
 

Alert Missing Persons Unit S02E05 720p x264-FENiX EZTV

Episode Breakdown
Alert
Alert TV Show S02E05

Season: 2
Episode: 5
Air Date: 2 April, 2024
Download Links
     Torrent Download     Magnet Download
     Anonymous Download
Added 11 days ago by eztv (verified).
Tracker Statistics
Seeds: 4
Peers: 4
Stats generated @ 12:51 on 14th Apr 2024
Torrent Info
Torrent File: Alert Missing Persons Unit S02E05 720p x264-FENiX[EZTVx.to].mkv
Torrent Hash: 822F6FC1DD0F2CDE8CBE8D5CF178D3612635F488
Filesize: 440 MB
Released: 3rd Apr 2024

File Format: MKV (Matroska)
Resolution: 1280x720 px
Aspect Ratio: 16:9
Alternate Releases S L
Alert Missing Persons Unit S02E05 720p HDTV x264-SYNCOPY 49 9
Alert Missing Persons Unit S02E05 720p HEVC x265-MeGusta 17 5
Alert Missing Persons Unit S02E05 480p x264-mSD 14 6
Alert Missing Persons Unit S02E05 XviD-AFG 17 1
Alert Missing Persons Unit S02E05 720p WEB h264-BAE 9 2
Alert Missing Persons Unit S02E05 1080p WEB h264-BAE 11 3
Alert Missing Persons Unit S02E05 1080p HEVC x265-MeGusta 21 8

Alert S02E05 - Ms. Patty

Summary:

The MPU searches for a kidnapped tough-as-nails neighborhood watch captain; Jason enlists Wayne's help investigating the car bombing; Mike is concerned Nikki is keeping secrets from him.



Alert Missing Persons Unit S02E05 720p x264-FENiX EZTV
Alert S2E5 Screenshot


General
Unique ID: 29641765969725962342281249348887146509 (0x164CCBE55D17697351FAF9B97F92700D)
Complete name: Alert Missing Persons Unit S02E05 720p x264-FENiX.mkv
Format: Matroska
Format version: Version 4
File size: 440 MiB
Duration: 43 min 33 s
Overall bit rate: 1 413 kb/s
Frame rate: 23.976 FPS
Movie name: Alert.Missing.Persons.Unit.S02E05
Writing application: Lavf60.16.100
Writing library: Lavf60.16.100
Comment: FENiX-Wed-03-Apr-2024,05:01:32,720p,22,fast,N,4920000,1920,1080,1.78
ErrorDetectionType: Per level 1

Video
ID: 1
Format: AVC
Format/Info: Advanced Video Codec
Format profile: [email protected]
Format settings: CABAC / 4 Ref Frames
Format settings, CABAC: Yes
Format settings, Reference frames: 4 frames
Codec ID: V_MPEG4/ISO/AVC
Duration: 43 min 33 s
Bit rate: 1 193 kb/s
Width: 1 280 pixels
Height: 720 pixels
Display aspect ratio: 16:9
Frame rate mode: Constant
Frame rate: 23.976 (24000/1001) FPS
Color space: YUV
Chroma subsampling: 4:2:0
Bit depth: 8 bits
Scan type: Progressive
Bits/(Pixel*Frame): 0.054
Stream size: 372 MiB (84%)
Writing library: x264 core 164
Encoding settings: cabac=1 / ref=2 / deblock=1:0:0 / analyse=0x3:0x113 / me=hex / subme=6 / psy=1 / psy_rd=1.00:0.00 / mixed_ref=1 / me_range=16 / chroma_me=1 / trellis=1 / 8x8dct=1 / cqm=0 / deadzone=21,11 / fast_pskip=1 / chroma_qp_offset=-2 / threads=22 / lookahead_threads=3 / sliced_threads=0 / nr=0 / decimate=1 / interlaced=0 / bluray_compat=0 / constrained_intra=0 / bframes=3 / b_pyramid=2 / b_adapt=1 / b_bias=0 / direct=1 / weightb=1 / open_gop=0 / weightp=1 / keyint=250 / keyint_min=23 / scenecut=40 / intra_refresh=0 / rc_lookahead=30 / rc=crf / mbtree=1 / crf=22.0 / qcomp=0.60 / qpmin=0 / qpmax=69 / qpstep=4 / ip_ratio=1.40 / aq=1:1.00
Default: Yes
Forced: No
Color range: Limited
Color primaries: BT.709
Transfer characteristics: BT.709
Matrix coefficients: BT.709

Audio
ID: 2
Format: AC-3
Format/Info: Audio Coding 3
Commercial name: Dolby Digital
Codec ID: A_AC3
Duration: 43 min 33 s
Bit rate mode: Constant
Bit rate: 192 kb/s
Channel(s): 2 channels
Channel layout: L R
Sampling rate: 48.0 kHz
Frame rate: 31.250 FPS (1536 SPF)
Bit depth: 32 bits
Compression mode: Lossy
Stream size: 59.8 MiB (14%)
Writing library: Lavc60.31.102 ac3
Language: English
Service kind: Complete Main
Default: Yes
Forced: No

Text
ID: 3
Format: UTF-8
Codec ID: S_TEXT/UTF8
Codec ID/Info: UTF-8 Plain Text
Duration: 43 min 0 s
Language: English
Default: No
Forced: No

ssl  EZTV RSS EZTV Status | EZTV API | DMCA: [email protected]