eztvx.to | eztvstatus.org
Search title:  
TV Packs only
 

The New Look S01E10 What a Day This Has Been 1080p ATVP WEB-DL DDP5 1 H 264-NTb EZTV

Episode Breakdown
The New Look
The New Look TV Show S01E10

Season: 1
Episode: 10
Air Date: 3 April, 2024
Download Links
     Torrent Download     Magnet Download
     Anonymous Download
Added 1 month ago by eztv (verified).
Tracker Statistics
Seeds: 6
Peers: 2
Stats generated @ 20:18 on 21st May 2024
Torrent Info
Torrent File: The New Look S01E10 What a Day This Has Been 1080p ATVP WEB-DL DDP5 1 H 264-NTb[EZTVx.to].mkv
Torrent Hash: 7B92832E89CE3AFB248D3BC0CA35F898EF059803
Filesize: 4.04 GB
Released: 3rd Apr 2024

File Format: MKV (Matroska)
Resolution: 1920x1080 px
Aspect Ratio: 16:9
Alternate Releases S L
The New Look S01E10 1080p WEB h264-ETHEL 24 8
The New Look S01E10 FINAL MULTI 1080p WEB H264-HiggsBoson 13 6
The New Look S01E10 1080p HEVC x265-MeGusta 14 6
The New Look S01E10 What a Day This Has Been 720p ATVP WEB-DL DDP5 1 H 264-NTb 3 3
The New Look S01E10 What a Day This Has Been 720p ATVP WEB-DL DDP5 1 Atmos H 264-FLUX 5 2
The New Look S01E10 What a Day This Has Been 1080p ATVP WEB-DL DDP5 1 Atmos H 264-FLUX 0 5
The New Look S01E10 XviD-AFG 4 7

The New Look S01E10 - What a Day This Has Been

Summary:

Season finale. Christian's major decision puts his first fashion show in danger. As Coco confronts her partners, Spatz threatens her freedom.



The New Look S01E10 What a Day This Has Been 1080p ATVP WEB-DL DDP5 1 H 264-NTb EZTV
The New Look S1E10 Screenshot


General
Unique ID: 71557032945760789390332884170811429463 (0x35D5621C8D679795736D3EB04608D257)
Complete name: The New Look S01E10 What a Day This Has Been 1080p ATVP WEB-DL DDP5 1 H 264-NTb.mkv
Format: Matroska
Format version: Version 4
File size: 4.04 GiB
Duration: 53 min 0 s
Overall bit rate: 10.9 Mb/s
Frame rate: 23.976 FPS
Writing application: mkvmerge v81.0 ('Milliontown') 64-bit
Writing library: libebml v1.4.4 + libmatroska v1.7.1

Video
ID: 1
Format: AVC
Format/Info: Advanced Video Codec
Format profile: High@L4
Format settings: CABAC / 4 Ref Frames
Format settings, CABAC: Yes
Format settings, Reference frames: 4 frames
Codec ID: V_MPEG4/ISO/AVC
Duration: 53 min 0 s
Bit rate: 10.1 Mb/s
Width: 1 920 pixels
Height: 1 080 pixels
Display aspect ratio: 16:9
Frame rate mode: Constant
Frame rate: 23.976 (24000/1001) FPS
Color space: YUV
Chroma subsampling: 4:2:0
Bit depth: 8 bits
Scan type: Progressive
Bits/(Pixel*Frame): 0.204
Stream size: 3.75 GiB (93%)
Default: Yes
Forced: No
Color range: Limited
Color primaries: BT.709
Transfer characteristics: BT.709
Matrix coefficients: BT.709

Audio
ID: 2
Format: E-AC-3 JOC
Format/Info: Enhanced AC-3 with Joint Object Coding
Commercial name: Dolby Digital Plus with Dolby Atmos
Codec ID: A_EAC3
Duration: 53 min 0 s
Bit rate mode: Constant
Bit rate: 768 kb/s
Channel(s): 6 channels
Channel layout: L R C LFE Ls Rs
Sampling rate: 48.0 kHz
Frame rate: 31.250 FPS (1536 SPF)
Compression mode: Lossy
Stream size: 291 MiB (7%)
Language: English
Service kind: Complete Main
Default: Yes
Forced: No
Complexity index: 16
Number of dynamic objects: 15
Bed channel count: 1 channel
Bed channel configuration: LFE

Text #1
ID: 3
Format: UTF-8
Codec ID: S_TEXT/UTF8
Codec ID/Info: UTF-8 Plain Text
Duration: 50 min 21 s
Bit rate: 60 b/s
Frame rate: 0.194 FPS
Count of elements: 585
Stream size: 22.2 KiB (0%)
Language: English
Default: No
Forced: No

Text #2
ID: 4
Format: UTF-8
Codec ID: S_TEXT/UTF8
Codec ID/Info: UTF-8 Plain Text
Duration: 50 min 41 s
Bit rate: 66 b/s
Frame rate: 0.212 FPS
Count of elements: 645
Stream size: 24.8 KiB (0%)
Title: SDH
Language: English
Default: No
Forced: No

Text #3
ID: 5
Format: UTF-8
Codec ID: S_TEXT/UTF8
Codec ID/Info: UTF-8 Plain Text
Duration: 52 min 46 s
Bit rate: 82 b/s
Frame rate: 0.192 FPS
Count of elements: 608
Stream size: 31.9 KiB (0%)
Language: Arabic
Default: No
Forced: No

Text #4
ID: 6
Format: UTF-8
Codec ID: S_TEXT/UTF8
Codec ID/Info: UTF-8 Plain Text
Duration: 52 min 46 s
Bit rate: 80 b/s
Frame rate: 0.165 FPS
Count of elements: 524
Stream size: 31.2 KiB (0%)
Language: Bulgarian
Default: No
Forced: No

Text #5
ID: 7
Format: UTF-8
Codec ID: S_TEXT/UTF8
Codec ID/Info: UTF-8 Plain Text
Duration: 52 min 46 s
Bit rate: 53 b/s
Frame rate: 0.193 FPS
Count of elements: 611
Stream size: 20.6 KiB (0%)
Title: Chinese (Simplified)
Language: Chinese (Simplified)
Default: No
Forced: No

Text #6
ID: 8
Format: UTF-8
Codec ID: S_TEXT/UTF8
Codec ID/Info: UTF-8 Plain Text
Duration: 52 min 46 s
Bit rate: 49 b/s
Frame rate: 0.194 FPS
Count of elements: 613
Stream size: 19.2 KiB (0%)
Title: Chinese (Traditional)
Language: Chinese (Traditional)
Default: No
Forced: No

Text #7
ID: 9
Format: UTF-8
Codec ID: S_TEXT/UTF8
Codec ID/Info: UTF-8 Plain Text
Duration: 52 min 46 s
Bit rate: 54 b/s
Frame rate: 0.179 FPS
Count of elements: 566
Stream size: 21.1 KiB (0%)
Language: Czech
Default: No
Forced: No

Text #8
ID: 10
Format: UTF-8
Codec ID: S_TEXT/UTF8
Codec ID/Info: UTF-8 Plain Text
Duration: 52 min 46 s
Bit rate: 57 b/s
Frame rate: 0.178 FPS
Count of elements: 563
Stream size: 22.4 KiB (0%)
Language: Danish
Default: No
Forced: No

Text #9
ID: 11
Format: UTF-8
Codec ID: S_TEXT/UTF8
Codec ID/Info: UTF-8 Plain Text
Duration: 52 min 40 s
Bit rate: 58 b/s
Frame rate: 0.204 FPS
Count of elements: 644
Stream size: 22.7 KiB (0%)
Language: German
Default: No
Forced: No

Text #10
ID: 12
Format: UTF-8
Codec ID: S_TEXT/UTF8
Codec ID/Info: UTF-8 Plain Text
Duration: 52 min 46 s
Bit rate: 97 b/s
Frame rate: 0.189 FPS
Count of elements: 600
Stream size: 37.6 KiB (0%)
Language: Greek
Default: No
Forced: No

Text #11
ID: 13
Format: UTF-8
Codec ID: S_TEXT/UTF8
Codec ID/Info: UTF-8 Plain Text
Duration: 52 min 46 s
Bit rate: 56 b/s
Frame rate: 0.189 FPS
Count of elements: 598
Stream size: 21.8 KiB (0%)
Title: Spanish (Latin America)
Language: Spanish (Latin America)
Default: No
Forced: No

Text #12
ID: 14
Format: UTF-8
Codec ID: S_TEXT/UTF8
Codec ID/Info: UTF-8 Plain Text
Duration: 52 min 46 s
Bit rate: 59 b/s
Frame rate: 0.196 FPS
Count of elements: 621
Stream size: 23.1 KiB (0%)
Title: Spanish (Spain)
Language: Spanish (ES)
Default: No
Forced: No

Text #13
ID: 15
Format: UTF-8
Codec ID: S_TEXT/UTF8
Codec ID/Info: UTF-8 Plain Text
Duration: 52 min 46 s
Bit rate: 54 b/s
Frame rate: 0.186 FPS
Count of elements: 590
Stream size: 21.1 KiB (0%)
Language: Estonian
Default: No
Forced: No

Text #14
ID: 16
Format: UTF-8
Codec ID: S_TEXT/UTF8
Codec ID/Info: UTF-8 Plain Text
Duration: 52 min 46 s
Bit rate: 54 b/s
Frame rate: 0.182 FPS
Count of elements: 575
Stream size: 21.0 KiB (0%)
Language: Finnish
Default: No
Forced: No

Text #15
ID: 17
Format: UTF-8
Codec ID: S_TEXT/UTF8
Codec ID/Info: UTF-8 Plain Text
Duration: 52 min 43 s
Bit rate: 56 b/s
Frame rate: 0.221 FPS
Count of elements: 699
Stream size: 21.7 KiB (0%)
Title: French (Canada)
Language: French (CA)
Default: No
Forced: No

Text #16
ID: 18
Format: UTF-8
Codec ID: S_TEXT/UTF8
Codec ID/Info: UTF-8 Plain Text
Duration: 52 min 43 s
Bit rate: 56 b/s
Frame rate: 0.220 FPS
Count of elements: 697
Stream size: 21.7 KiB (0%)
Title: French (France)
Language: French (FR)
Default: No
Forced: No

Text #17
ID: 19
Format: UTF-8
Codec ID: S_TEXT/UTF8
Codec ID/Info: UTF-8 Plain Text
Duration: 52 min 46 s
Bit rate: 77 b/s
Frame rate: 0.193 FPS
Count of elements: 610
Stream size: 29.8 KiB (0%)
Language: Hebrew
Default: No
Forced: No

Text #18
ID: 20
Format: UTF-8
Codec ID: S_TEXT/UTF8
Codec ID/Info: UTF-8 Plain Text
Duration: 52 min 46 s
Bit rate: 156 b/s
Frame rate: 0.193 FPS
Count of elements: 612
Stream size: 60.5 KiB (0%)
Language: Hindi
Default: No
Forced: No

Text #19
ID: 21
Format: UTF-8
Codec ID: S_TEXT/UTF8
Codec ID/Info: UTF-8 Plain Text
Duration: 52 min 46 s
Bit rate: 55 b/s
Frame rate: 0.188 FPS
Count of elements: 595
Stream size: 21.6 KiB (0%)
Language: Hungarian
Default: No
Forced: No

Text #20
ID: 22
Format: UTF-8
Codec ID: S_TEXT/UTF8
Codec ID/Info: UTF-8 Plain Text
Duration: 52 min 46 s
Bit rate: 59 b/s
Frame rate: 0.189 FPS
Count of elements: 597
Stream size: 23.1 KiB (0%)
Language: Indonesian
Default: No
Forced: No

Text #21
ID: 23
Format: UTF-8
Codec ID: S_TEXT/UTF8
Codec ID/Info: UTF-8 Plain Text
Duration: 52 min 34 s
Bit rate: 56 b/s
Frame rate: 0.200 FPS
Count of elements: 632
Stream size: 21.8 KiB (0%)
Language: Italian
Default: No
Forced: No

Text #22
ID: 24
Format: UTF-8
Codec ID: S_TEXT/UTF8
Codec ID/Info: UTF-8 Plain Text
Duration: 52 min 41 s
Bit rate: 48 b/s
Frame rate: 0.198 FPS
Count of elements: 627
Stream size: 18.8 KiB (0%)
Language: Japanese
Default: No
Forced: No

Text #23
ID: 25
Format: UTF-8
Codec ID: S_TEXT/UTF8
Codec ID/Info: UTF-8 Plain Text
Duration: 52 min 46 s
Bit rate: 58 b/s
Frame rate: 0.193 FPS
Count of elements: 612
Stream size: 22.6 KiB (0%)
Language: Korean
Default: No
Forced: No

Text #24
ID: 26
Format: UTF-8
Codec ID: S_TEXT/UTF8
Codec ID/Info: UTF-8 Plain Text
Duration: 52 min 46 s
Bit rate: 57 b/s
Frame rate: 0.191 FPS
Count of elements: 604
Stream size: 22.1 KiB (0%)
Language: Lithuanian
Default: No
Forced: No

Text #25
ID: 27
Format: UTF-8
Codec ID: S_TEXT/UTF8
Codec ID/Info: UTF-8 Plain Text
Duration: 52 min 46 s
Bit rate: 58 b/s
Frame rate: 0.185 FPS
Count of elements: 587
Stream size: 22.7 KiB (0%)
Language: Latvian
Default: No
Forced: No

Text #26
ID: 28
Format: UTF-8
Codec ID: S_TEXT/UTF8
Codec ID/Info: UTF-8 Plain Text
Duration: 52 min 46 s
Bit rate: 55 b/s
Frame rate: 0.191 FPS
Count of elements: 604
Stream size: 21.6 KiB (0%)
Language: Malay
Default: No
Forced: No

Text #27
ID: 29
Format: UTF-8
Codec ID: S_TEXT/UTF8
Codec ID/Info: UTF-8 Plain Text
Duration: 52 min 46 s
Bit rate: 53 b/s
Frame rate: 0.159 FPS
Count of elements: 505
Stream size: 20.5 KiB (0%)
Language: Dutch
Default: No
Forced: No

Text #28
ID: 30
Format: UTF-8
Codec ID: S_TEXT/UTF8
Codec ID/Info: UTF-8 Plain Text
Duration: 52 min 46 s
Bit rate: 52 b/s
Frame rate: 0.170 FPS
Count of elements: 539
Stream size: 20.5 KiB (0%)
Language: Norwegian
Default: No
Forced: No

Text #29
ID: 31
Format: UTF-8
Codec ID: S_TEXT/UTF8
Codec ID/Info: UTF-8 Plain Text
Duration: 52 min 46 s
Bit rate: 53 b/s
Frame rate: 0.182 FPS
Count of elements: 575
Stream size: 20.5 KiB (0%)
Language: Polish
Default: No
Forced: No

Text #30
ID: 32
Format: UTF-8
Codec ID: S_TEXT/UTF8
Codec ID/Info: UTF-8 Plain Text
Duration: 52 min 46 s
Bit rate: 56 b/s
Frame rate: 0.188 FPS
Count of elements: 595
Stream size: 22.0 KiB (0%)
Title: Portuguese
Language: Portuguese
Default: No
Forced: No

Text #31
ID: 33
Format: UTF-8
Codec ID: S_TEXT/UTF8
Codec ID/Info: UTF-8 Plain Text
Duration: 52 min 46 s
Bit rate: 54 b/s
Frame rate: 0.181 FPS
Count of elements: 573
Stream size: 21.2 KiB (0%)
Title: Portuguese (Brazil)
Language: Portuguese (BR)
Default: No
Forced: No

Text #32
ID: 34
Format: UTF-8
Codec ID: S_TEXT/UTF8
Codec ID/Info: UTF-8 Plain Text
Duration: 52 min 46 s
Bit rate: 86 b/s
Frame rate: 0.191 FPS
Count of elements: 604
Stream size: 33.5 KiB (0%)
Language: Russian
Default: No
Forced: No

Text #33
ID: 35
Format: UTF-8
Codec ID: S_TEXT/UTF8
Codec ID/Info: UTF-8 Plain Text
Duration: 52 min 46 s
Bit rate: 54 b/s
Frame rate: 0.189 FPS
Count of elements: 598
Stream size: 21.0 KiB (0%)
Language: Slovak
Default: No
Forced: No

Text #34
ID: 36
Format: UTF-8
Codec ID: S_TEXT/UTF8
Codec ID/Info: UTF-8 Plain Text
Duration: 52 min 46 s
Bit rate: 46 b/s
Frame rate: 0.164 FPS
Count of elements: 520
Stream size: 18.1 KiB (0%)
Language: Slovenian
Default: No
Forced: No

Text #35
ID: 37
Format: UTF-8
Codec ID: S_TEXT/UTF8
Codec ID/Info: UTF-8 Plain Text
Duration: 52 min 46 s
Bit rate: 58 b/s
Frame rate: 0.186 FPS
Count of elements: 589
Stream size: 22.7 KiB (0%)
Language: Swedish
Default: No
Forced: No

Text #36
ID: 38
Format: UTF-8
Codec ID: S_TEXT/UTF8
Codec ID/Info: UTF-8 Plain Text
Duration: 52 min 46 s
Bit rate: 170 b/s
Frame rate: 0.192 FPS
Count of elements: 609
Stream size: 66.0 KiB (0%)
Language: Tamil
Default: No
Forced: No

Text #37
ID: 39
Format: UTF-8
Codec ID: S_TEXT/UTF8
Codec ID/Info: UTF-8 Plain Text
Duration: 52 min 46 s
Bit rate: 169 b/s
Frame rate: 0.193 FPS
Count of elements: 610
Stream size: 65.3 KiB (0%)
Language: Telugu
Default: No
Forced: No

Text #38
ID: 40
Format: UTF-8
Codec ID: S_TEXT/UTF8
Codec ID/Info: UTF-8 Plain Text
Duration: 52 min 46 s
Bit rate: 143 b/s
Frame rate: 0.193 FPS
Count of elements: 611
Stream size: 55.5 KiB (0%)
Language: Thai
Default: No
Forced: No

Text #39
ID: 41
Format: UTF-8
Codec ID: S_TEXT/UTF8
Codec ID/Info: UTF-8 Plain Text
Duration: 52 min 46 s
Bit rate: 55 b/s
Frame rate: 0.186 FPS
Count of elements: 589
Stream size: 21.5 KiB (0%)
Language: Turkish
Default: No
Forced: No

Text #40
ID: 42
Format: UTF-8
Codec ID: S_TEXT/UTF8
Codec ID/Info: UTF-8 Plain Text
Duration: 52 min 46 s
Bit rate: 90 b/s
Frame rate: 0.193 FPS
Count of elements: 611
Stream size: 35.1 KiB (0%)
Language: Ukrainian
Default: No
Forced: No

Text #41
ID: 43
Format: UTF-8
Codec ID: S_TEXT/UTF8
Codec ID/Info: UTF-8 Plain Text
Duration: 52 min 46 s
Bit rate: 75 b/s
Frame rate: 0.187 FPS
Count of elements: 593
Stream size: 29.0 KiB (0%)
Language: Vietnamese
Default: No
Forced: No

Text #42
ID: 44
Format: UTF-8
Codec ID: S_TEXT/UTF8
Codec ID/Info: UTF-8 Plain Text
Duration: 52 min 46 s
Bit rate: 46 b/s
Frame rate: 0.194 FPS
Count of elements: 613
Stream size: 17.8 KiB (0%)
Title: Chinese (Traditional)
Language: Chinese (Traditional)
Default: No
Forced: No

Menu
00:00:00.000: en:Chapter 1
00:02:54.458: en:Intro
00:03:37.916: en:Chapter 2

ssl  EZTV RSS EZTV Status | EZTV API | DMCA: [email protected]