eztvx.to | eztvstatus.org
Search title:  
TV Packs only
 

Family Guy S22E11 Teachers Heavy Pet 1080p DSNP WEB-DL DDP5 1 H 264-NTb EZTV

Episode Breakdown
Family Guy
Family Guy TV Show S22E11

Season: 22
Episode: 11
Air Date: 13 March, 2024
Download Links
     Torrent Download     Magnet Download
     Anonymous Download
Added 11 days ago by eztv (verified).
Tracker Statistics
Seeds: 58
Peers: 3
Stats generated @ 13:03 on 14th Apr 2024
Torrent Info
Torrent File: Family Guy S22E11 Teachers Heavy Pet 1080p DSNP WEB-DL DDP5 1 H 264-NTb[EZTVx.to].mkv
Torrent Hash: DABC1C11C1C3B01B12CF163BEB0378EB0D8A855B
Filesize: 767 MB
Released: 3rd Apr 2024

File Format: MKV (Matroska)
Resolution: 1920x1080 px
Aspect Ratio: 16:9
Alternate Releases S L
Family Guy S22E11 720p WEB h264-EDITH 74 22
Family Guy S22E11 480p x264-mSD 21 6
Family Guy S22E11 1080p WEB h264-EDITH 106 17
Family Guy S22E11 720p HEVC x265-MeGusta 13 1
Family Guy S22E11 WEBRip x264-XEN0N 8 5
Family Guy S22E11 XviD-AFG 7 2
Family Guy S22E11 1080p HEVC x265-MeGusta 39 3

Family Guy S22E11 - Teacher's Heavy Pet

Summary:

Lois joins Chris' school as a substitute teacher.



Family Guy S22E11 Teachers Heavy Pet 1080p DSNP WEB-DL DDP5 1 H 264-NTb EZTV
Family Guy S22E11 Screenshot


General
Unique ID: 147815903165491184854191419792988203229 (0x6F344EB2D5C6055378B4842519A268DD)
Complete name: Family Guy S22E11 Teachers Heavy Pet 1080p DSNP WEB-DL DDP5 1 H 264-NTb.mkv
Format: Matroska
Format version: Version 4
File size: 767 MiB
Duration: 21 min 38 s
Overall bit rate mode: Variable
Overall bit rate: 4 955 kb/s
Frame rate: 23.976 FPS
Writing application: mkvmerge v80.0 ('Roundabout') 64-bit
Writing library: libebml v1.4.4 + libmatroska v1.7.1

Video
ID: 1
Format: AVC
Format/Info: Advanced Video Codec
Format profile: High@L4
Format settings: CABAC / 4 Ref Frames
Format settings, CABAC: Yes
Format settings, Reference frames: 4 frames
Codec ID: V_MPEG4/ISO/AVC
Duration: 21 min 38 s
Bit rate mode: Variable
Bit rate: 4 693 kb/s
Maximum bit rate: 12.7 Mb/s
Width: 1 920 pixels
Height: 1 080 pixels
Display aspect ratio: 16:9
Frame rate mode: Constant
Frame rate: 23.976 (24000/1001) FPS
Color space: YUV
Chroma subsampling: 4:2:0
Bit depth: 8 bits
Scan type: Progressive
Bits/(Pixel*Frame): 0.094
Time code of first frame: 00:00:00:0000000000
Stream size: 726 MiB (95%)
Default: Yes
Forced: No
Color range: Limited
Color primaries: BT.709
Transfer characteristics: BT.709
Matrix coefficients: BT.709

Audio
ID: 2
Format: E-AC-3
Format/Info: Enhanced AC-3
Commercial name: Dolby Digital Plus
Codec ID: A_EAC3
Duration: 21 min 37 s
Bit rate mode: Constant
Bit rate: 256 kb/s
Channel(s): 6 channels
Channel layout: L R C LFE Ls Rs
Sampling rate: 48.0 kHz
Frame rate: 31.250 FPS (1536 SPF)
Compression mode: Lossy
Stream size: 39.6 MiB (5%)
Language: English
Service kind: Complete Main
Default: Yes
Forced: No

Text #1
ID: 3
Format: UTF-8
Codec ID: S_TEXT/UTF8
Codec ID/Info: UTF-8 Plain Text
Duration: 21 min 1 s
Bit rate: 103 b/s
Frame rate: 0.304 FPS
Count of elements: 383
Stream size: 16.0 KiB (0%)
Language: English
Default: No
Forced: No

Text #2
ID: 4
Format: UTF-8
Codec ID: S_TEXT/UTF8
Codec ID/Info: UTF-8 Plain Text
Duration: 21 min 1 s
Bit rate: 109 b/s
Frame rate: 0.323 FPS
Count of elements: 407
Stream size: 16.8 KiB (0%)
Title: SDH
Language: English
Default: No
Forced: No

Text #3
ID: 5
Format: UTF-8
Codec ID: S_TEXT/UTF8
Codec ID/Info: UTF-8 Plain Text
Duration: 21 min 32 s
Bit rate: 94 b/s
Frame rate: 0.286 FPS
Count of elements: 370
Stream size: 14.9 KiB (0%)
Language: Czech
Default: No
Forced: No

Text #4
ID: 6
Format: UTF-8
Codec ID: S_TEXT/UTF8
Codec ID/Info: UTF-8 Plain Text
Duration: 21 min 32 s
Bit rate: 96 b/s
Frame rate: 0.299 FPS
Count of elements: 386
Stream size: 15.2 KiB (0%)
Language: Danish
Default: No
Forced: No

Text #5
ID: 7
Format: UTF-8
Codec ID: S_TEXT/UTF8
Codec ID/Info: UTF-8 Plain Text
Duration: 21 min 2 s
Bit rate: 98 b/s
Frame rate: 0.295 FPS
Count of elements: 372
Stream size: 15.2 KiB (0%)
Language: German
Default: No
Forced: No

Text #6
ID: 8
Format: UTF-8
Codec ID: S_TEXT/UTF8
Codec ID/Info: UTF-8 Plain Text
Duration: 21 min 32 s
Bit rate: 168 b/s
Frame rate: 0.293 FPS
Count of elements: 379
Stream size: 26.6 KiB (0%)
Language: Greek
Default: No
Forced: No

Text #7
ID: 9
Format: UTF-8
Codec ID: S_TEXT/UTF8
Codec ID/Info: UTF-8 Plain Text
Duration: 21 min 32 s
Bit rate: 94 b/s
Frame rate: 0.280 FPS
Count of elements: 362
Stream size: 14.9 KiB (0%)
Title: Spanish (Latin America)
Language: Spanish (Latin America)
Default: No
Forced: No

Text #8
ID: 10
Format: UTF-8
Codec ID: S_TEXT/UTF8
Codec ID/Info: UTF-8 Plain Text
Duration: 21 min 3 s
Bit rate: 97 b/s
Frame rate: 0.294 FPS
Count of elements: 371
Stream size: 15.0 KiB (0%)
Title: Spanish (Spain)
Language: Spanish (ES)
Default: No
Forced: No

Text #9
ID: 11
Format: UTF-8
Codec ID: S_TEXT/UTF8
Codec ID/Info: UTF-8 Plain Text
Duration: 21 min 32 s
Bit rate: 85 b/s
Frame rate: 0.289 FPS
Count of elements: 373
Stream size: 13.6 KiB (0%)
Language: Finnish
Default: No
Forced: No

Text #10
ID: 12
Format: UTF-8
Codec ID: S_TEXT/UTF8
Codec ID/Info: UTF-8 Plain Text
Duration: 21 min 32 s
Bit rate: 93 b/s
Frame rate: 0.303 FPS
Count of elements: 391
Stream size: 14.8 KiB (0%)
Language: French (FR)
Default: No
Forced: No

Text #11
ID: 13
Format: UTF-8
Codec ID: S_TEXT/UTF8
Codec ID/Info: UTF-8 Plain Text
Duration: 21 min 32 s
Bit rate: 96 b/s
Frame rate: 0.293 FPS
Count of elements: 379
Stream size: 15.1 KiB (0%)
Language: Hungarian
Default: No
Forced: No

Text #12
ID: 14
Format: UTF-8
Codec ID: S_TEXT/UTF8
Codec ID/Info: UTF-8 Plain Text
Duration: 21 min 3 s
Bit rate: 90 b/s
Frame rate: 0.282 FPS
Count of elements: 357
Stream size: 14.0 KiB (0%)
Language: Italian
Default: No
Forced: No

Text #13
ID: 15
Format: UTF-8
Codec ID: S_TEXT/UTF8
Codec ID/Info: UTF-8 Plain Text
Duration: 21 min 32 s
Bit rate: 83 b/s
Frame rate: 0.276 FPS
Count of elements: 357
Stream size: 13.2 KiB (0%)
Language: Japanese
Default: No
Forced: No

Text #14
ID: 16
Format: UTF-8
Codec ID: S_TEXT/UTF8
Codec ID/Info: UTF-8 Plain Text
Duration: 21 min 32 s
Bit rate: 116 b/s
Frame rate: 0.306 FPS
Count of elements: 395
Stream size: 18.4 KiB (0%)
Language: Korean
Default: No
Forced: No

Text #15
ID: 17
Format: UTF-8
Codec ID: S_TEXT/UTF8
Codec ID/Info: UTF-8 Plain Text
Duration: 21 min 32 s
Bit rate: 92 b/s
Frame rate: 0.294 FPS
Count of elements: 380
Stream size: 14.6 KiB (0%)
Language: Dutch
Default: No
Forced: No

Text #16
ID: 18
Format: UTF-8
Codec ID: S_TEXT/UTF8
Codec ID/Info: UTF-8 Plain Text
Duration: 21 min 32 s
Bit rate: 94 b/s
Frame rate: 0.292 FPS
Count of elements: 377
Stream size: 14.9 KiB (0%)
Language: Norwegian
Default: No
Forced: No

Text #17
ID: 19
Format: UTF-8
Codec ID: S_TEXT/UTF8
Codec ID/Info: UTF-8 Plain Text
Duration: 21 min 32 s
Bit rate: 86 b/s
Frame rate: 0.292 FPS
Count of elements: 377
Stream size: 13.7 KiB (0%)
Language: Polish
Default: No
Forced: No

Text #18
ID: 20
Format: UTF-8
Codec ID: S_TEXT/UTF8
Codec ID/Info: UTF-8 Plain Text
Duration: 21 min 32 s
Bit rate: 93 b/s
Frame rate: 0.295 FPS
Count of elements: 381
Stream size: 14.8 KiB (0%)
Language: Portuguese (BR)
Default: No
Forced: No

Text #19
ID: 21
Format: UTF-8
Codec ID: S_TEXT/UTF8
Codec ID/Info: UTF-8 Plain Text
Duration: 21 min 32 s
Bit rate: 92 b/s
Frame rate: 0.242 FPS
Count of elements: 313
Stream size: 14.5 KiB (0%)
Language: Romanian
Default: No
Forced: No

Text #20
ID: 22
Format: UTF-8
Codec ID: S_TEXT/UTF8
Codec ID/Info: UTF-8 Plain Text
Duration: 21 min 32 s
Bit rate: 97 b/s
Frame rate: 0.300 FPS
Count of elements: 388
Stream size: 15.4 KiB (0%)
Language: Slovak
Default: No
Forced: No

Text #21
ID: 23
Format: UTF-8
Codec ID: S_TEXT/UTF8
Codec ID/Info: UTF-8 Plain Text
Duration: 21 min 32 s
Bit rate: 93 b/s
Frame rate: 0.299 FPS
Count of elements: 386
Stream size: 14.7 KiB (0%)
Language: Swedish
Default: No
Forced: No

Text #22
ID: 24
Format: UTF-8
Codec ID: S_TEXT/UTF8
Codec ID/Info: UTF-8 Plain Text
Duration: 21 min 32 s
Bit rate: 99 b/s
Frame rate: 0.275 FPS
Count of elements: 356
Stream size: 15.6 KiB (0%)
Language: Turkish
Default: No
Forced: No
ssl  EZTV RSS EZTV Status | EZTV API | DMCA: [email protected]