eztvx.to | eztvstatus.org
Search title:  
TV Packs only
 

Family Guy S22E10 Cabin Pressure 1080p DSNP WEB-DL DDP5 1 H 264-NTb EZTV

Episode Breakdown
Family Guy
Family Guy TV Show S22E10

Season: 22
Episode: 10
Air Date: 6 March, 2024
Download Links
     Torrent Download     Magnet Download
     Anonymous Download
Added 11 days ago by eztv (verified).
Tracker Statistics
Seeds: 36
Peers: 5
Stats generated @ 12:27 on 14th Apr 2024
Torrent Info
Torrent File: Family Guy S22E10 Cabin Pressure 1080p DSNP WEB-DL DDP5 1 H 264-NTb[EZTVx.to].mkv
Torrent Hash: 0276A1F8C4E2428F83D3CB361ED4C2B636C13CAF
Filesize: 776 MB
Released: 3rd Apr 2024

File Format: MKV (Matroska)
Resolution: 1920x1080 px
Aspect Ratio: 16:9
Alternate Releases S L
Family Guy S22E10 720p WEB h264-BAE 45 7
Family Guy S22E10 1080p WEB h264-BAE 392 61
Family Guy S22E10 1080p HEVC x265-MeGusta 33 12
Family Guy S22E10 720p HEVC x265-MeGusta 23 5
Family Guy S22E10 480p x264-mSD 20 6
Family Guy S22E10 XviD-AFG 12 6
Family Guy S22E10 iNTERNAL 1080p WEB h264-EDITH 4 8

Family Guy S22E10 - Cabin Pressure

Summary:

When the Griffins win a trip to Maine at Peter's company picnic, they decide to invite their friends on the vacation; tensions run high and things soon spiral out of control when the cabin burns down.



Family Guy S22E10 Cabin Pressure 1080p DSNP WEB-DL DDP5 1 H 264-NTb EZTV
Family Guy S22E10 Screenshot


General
Unique ID: 33687051995565375041925467704506794309 (0x1957E3E54D9D75D30BFDA7570A9D4145)
Complete name: Family Guy S22E10 Cabin Pressure 1080p DSNP WEB-DL DDP5 1 H 264-NTb.mkv
Format: Matroska
Format version: Version 4
File size: 776 MiB
Duration: 21 min 36 s
Overall bit rate mode: Variable
Overall bit rate: 5 025 kb/s
Frame rate: 23.976 FPS
Writing application: mkvmerge v80.0 ('Roundabout') 64-bit
Writing library: libebml v1.4.4 + libmatroska v1.7.1

Video
ID: 1
Format: AVC
Format/Info: Advanced Video Codec
Format profile: High@L4
Format settings: CABAC / 4 Ref Frames
Format settings, CABAC: Yes
Format settings, Reference frames: 4 frames
Codec ID: V_MPEG4/ISO/AVC
Duration: 21 min 36 s
Bit rate mode: Variable
Bit rate: 4 766 kb/s
Maximum bit rate: 12.7 Mb/s
Width: 1 920 pixels
Height: 1 080 pixels
Display aspect ratio: 16:9
Frame rate mode: Constant
Frame rate: 23.976 (24000/1001) FPS
Color space: YUV
Chroma subsampling: 4:2:0
Bit depth: 8 bits
Scan type: Progressive
Bits/(Pixel*Frame): 0.096
Time code of first frame: 00:00:00:0000000000
Stream size: 737 MiB (95%)
Default: Yes
Forced: No
Color range: Limited
Color primaries: BT.709
Transfer characteristics: BT.709
Matrix coefficients: BT.709

Audio
ID: 2
Format: E-AC-3
Format/Info: Enhanced AC-3
Commercial name: Dolby Digital Plus
Codec ID: A_EAC3
Duration: 21 min 36 s
Bit rate mode: Constant
Bit rate: 256 kb/s
Channel(s): 6 channels
Channel layout: L R C LFE Ls Rs
Sampling rate: 48.0 kHz
Frame rate: 31.250 FPS (1536 SPF)
Compression mode: Lossy
Stream size: 39.6 MiB (5%)
Language: English
Service kind: Complete Main
Default: Yes
Forced: No

Text #1
ID: 3
Format: UTF-8
Codec ID: S_TEXT/UTF8
Codec ID/Info: UTF-8 Plain Text
Duration: 20 min 57 s
Bit rate: 117 b/s
Frame rate: 0.313 FPS
Count of elements: 394
Stream size: 18.0 KiB (0%)
Language: English
Default: No
Forced: No

Text #2
ID: 4
Format: UTF-8
Codec ID: S_TEXT/UTF8
Codec ID/Info: UTF-8 Plain Text
Duration: 20 min 57 s
Bit rate: 121 b/s
Frame rate: 0.329 FPS
Count of elements: 413
Stream size: 18.7 KiB (0%)
Title: SDH
Language: English
Default: No
Forced: No

Text #3
ID: 5
Format: UTF-8
Codec ID: S_TEXT/UTF8
Codec ID/Info: UTF-8 Plain Text
Duration: 21 min 27 s
Bit rate: 99 b/s
Frame rate: 0.307 FPS
Count of elements: 395
Stream size: 15.7 KiB (0%)
Language: French (FR)
Default: No
Forced: No

Text #4
ID: 6
Format: UTF-8
Codec ID: S_TEXT/UTF8
Codec ID/Info: UTF-8 Plain Text
Duration: 21 min 27 s
Bit rate: 99 b/s
Frame rate: 0.311 FPS
Count of elements: 400
Stream size: 15.6 KiB (0%)
Language: Dutch
Default: No
Forced: No
ssl  EZTV RSS EZTV Status | EZTV API | DMCA: [email protected]