eztvx.to | eztvstatus.org
Search title:  
TV Packs only
 

Chefi la cutite S13E07 720p ANTP WEB-DL AAC2 0 H 264-playWEB EZTV

Episode Breakdown
Chefi la Cutite
Chefi la Cutite TV Show S13E07

Season: 13
Episode: 7
Download Links
     Torrent Download     Magnet Download
     Anonymous Download
Added 11 days ago by eztv (verified).
Tracker Statistics
Seeds: 1
Peers: 1
Stats generated @ 12:32 on 14th Apr 2024
Torrent Info
Torrent File: Chefi la cutite S13E07 720p ANTP WEB-DL AAC2 0 H 264-playWEB[EZTVx.to].mkv
Torrent Hash: A8CC1DB491ABE1C98D7585BC12C00A9C001F4D31
Filesize: 2.20 GB
Released: 3rd Apr 2024

File Format: MKV (Matroska)
Resolution: 1280x720 px
Aspect Ratio: 16:9

Episode Description


Chefi la cutite S13E07 720p ANTP WEB-DL AAC2 0 H 264-playWEB EZTV
Chefi la Cutite S13E7 Screenshot


General
Unique ID: 268351987170180534091604420524695465598 (0xC9E2B6784554286900E99F00B3B9AE7E)
Complete name: Chefi la cutite S13E07 720p ANTP WEB-DL AAC2 0 H 264-playWEB.mkv
Format: Matroska
Format version: Version 4
File size: 2.20 GiB
Duration: 2 h 28 min
Overall bit rate: 2 117 kb/s
Frame rate: 25.000 FPS
Writing application: mkvmerge v83.0 ('Circle Of Friends') 64-bit
Writing library: libebml v1.4.5 + libmatroska v1.7.1

Video
ID: 1
Format: AVC
Format/Info: Advanced Video Codec
Format profile: [email protected]
Format settings: CABAC / 4 Ref Frames
Format settings, CABAC: Yes
Format settings, Reference frames: 4 frames
Codec ID: V_MPEG4/ISO/AVC
Duration: 2 h 28 min
Bit rate: 1 922 kb/s
Width: 1 280 pixels
Height: 720 pixels
Display aspect ratio: 16:9
Frame rate mode: Constant
Frame rate: 25.000 FPS
Color space: YUV
Chroma subsampling: 4:2:0
Bit depth: 8 bits
Scan type: Progressive
Bits/(Pixel*Frame): 0.083
Stream size: 2.00 GiB (91%)
Writing library: x264 core 161 r3015 4c2aafd
Encoding settings: cabac=1 / ref=3 / deblock=1:0:0 / analyse=0x3:0x113 / me=hex / subme=7 / psy=1 / psy_rd=1.00:0.00 / mixed_ref=1 / me_range=16 / chroma_me=1 / trellis=1 / 8x8dct=1 / cqm=0 / deadzone=21,11 / fast_pskip=1 / chroma_qp_offset=-2 / threads=18 / lookahead_threads=3 / sliced_threads=0 / nr=0 / decimate=1 / interlaced=0 / bluray_compat=0 / constrained_intra=0 / bframes=3 / b_pyramid=2 / b_adapt=1 / b_bias=0 / direct=1 / weightb=1 / open_gop=0 / weightp=2 / keyint=250 / keyint_min=25 / scenecut=40 / intra_refresh=0 / rc_lookahead=40 / rc=crf / mbtree=1 / crf=23.0 / qcomp=0.60 / qpmin=0 / qpmax=69 / qpstep=4 / ip_ratio=1.40 / aq=1:1.00
Default: Yes
Forced: No

Audio
ID: 2
Format: AAC LC
Format/Info: Advanced Audio Codec Low Complexity
Codec ID: A_AAC-2
Duration: 2 h 28 min
Bit rate: 192 kb/s
Channel(s): 2 channels
Channel layout: L R
Sampling rate: 48.0 kHz
Frame rate: 46.875 FPS (1024 SPF)
Compression mode: Lossy
Delay relative to video: -80 ms
Stream size: 205 MiB (9%)
Language: Romanian
Default: Yes
Forced: No

ssl  EZTV RSS EZTV Status | EZTV API | DMCA: [email protected]