eztvx.to | eztvstatus.org
Search title:  
TV Packs only
 

Alert S02E01 Bus 447 720p AMZN WEB-DL DDP5 1 H 264-NTb EZTV

Episode Breakdown
Ugly Alert
Ugly Alert TV Show S02E01

Season: 2
Episode: 1
Download Links
     Torrent Download     Magnet Download
     Anonymous Download
Added 1 month ago by eztv (verified).
Tracker Statistics
Seeds: 0
Peers: 1
Stats generated @ 07:12 on 25th May 2024
Torrent Info
Torrent File: Alert S02E01 Bus 447 720p AMZN WEB-DL DDP5 1 H 264-NTb[EZTVx.to].mkv
Torrent Hash: ADAD20BBBB138BF972547DAE420EDF5BD3543DF4
Filesize: 1010 MB
Released: 28th Mar 2024

File Format: MKV (Matroska)
Resolution: 1280x720 px
Aspect Ratio: 16:9

Episode Description
Alert S02E01 Bus 447 720p AMZN WEB-DL DDP5 1 H 264-NTb EZTV
Ugly Alert S2E1 Screenshot


General
Unique ID: 78502351874085023399151178240655958680 (0x3B0F00C5C82AF83FD87982183E4D2298)
Complete name: Alert S02E01 Bus 447 720p AMZN WEB-DL DDP5 1 H 264-NTb.mkv
Format: Matroska
Format version: Version 4
File size: 1 010 MiB
Duration: 43 min 59 s
Overall bit rate: 3 212 kb/s
Frame rate: 23.976 FPS
Writing application: mkvmerge v81.0 ('Milliontown') 64-bit
Writing library: libebml v1.4.4 + libmatroska v1.7.1

Video
ID: 1
Format: AVC
Format/Info: Advanced Video Codec
Format profile: [email protected]
Format settings: CABAC / 4 Ref Frames
Format settings, CABAC: Yes
Format settings, Reference frames: 4 frames
Codec ID: V_MPEG4/ISO/AVC
Duration: 43 min 59 s
Bit rate mode: Constant
Bit rate: 2 569 kb/s
Nominal bit rate: 6 000 kb/s
Width: 1 280 pixels
Height: 640 pixels
Display aspect ratio: 2.000
Frame rate mode: Constant
Frame rate: 23.976 (24000/1001) FPS
Color space: YUV
Chroma subsampling: 4:2:0
Bit depth: 8 bits
Scan type: Progressive
Bits/(Pixel*Frame): 0.131
Stream size: 808 MiB (80%)
Default: Yes
Forced: No
Color range: Limited
Color primaries: BT.709
Transfer characteristics: BT.709
Matrix coefficients: BT.709

Audio
ID: 2
Format: E-AC-3
Format/Info: Enhanced AC-3
Commercial name: Dolby Digital Plus
Codec ID: A_EAC3
Duration: 43 min 59 s
Bit rate mode: Constant
Bit rate: 640 kb/s
Channel(s): 6 channels
Channel layout: L R C LFE Ls Rs
Sampling rate: 48.0 kHz
Frame rate: 31.250 FPS (1536 SPF)
Compression mode: Lossy
Stream size: 201 MiB (20%)
Language: English (US)
Service kind: Complete Main
Default: Yes
Forced: No

Text #1
ID: 3
Format: UTF-8
Codec ID: S_TEXT/UTF8
Codec ID/Info: UTF-8 Plain Text
Duration: 43 min 17 s
Bit rate: 92 b/s
Frame rate: 0.370 FPS
Count of elements: 960
Stream size: 29.2 KiB (0%)
Language: English (US)
Default: No
Forced: No

Text #2
ID: 4
Format: UTF-8
Codec ID: S_TEXT/UTF8
Codec ID/Info: UTF-8 Plain Text
Duration: 43 min 22 s
Bit rate: 98 b/s
Frame rate: 0.397 FPS
Count of elements: 1033
Stream size: 31.4 KiB (0%)
Title: SDH
Language: English (US)
Default: No
Forced: No
ssl  EZTV RSS EZTV Status | EZTV API | DMCA: [email protected]