eztvx.to | eztvstatus.org
Search title:  
TV Packs only
 

Alert S02E04 Maya 720p AMZN WEB-DL DDP5 1 H 264-NTb EZTV

Episode Breakdown
Ugly Alert
Ugly Alert TV Show S02E04

Season: 2
Episode: 4
Download Links
     Torrent Download     Magnet Download
     Anonymous Download
Added 1 month ago by eztv (verified).
Tracker Statistics
Seeds: 0
Peers: 4
Stats generated @ 07:59 on 25th May 2024
Torrent Info
Torrent File: Alert S02E04 Maya 720p AMZN WEB-DL DDP5 1 H 264-NTb[EZTVx.to].mkv
Torrent Hash: 4330346CE5714CFA4B777653110FAFE8D1D27299
Filesize: 1.02 GB
Released: 28th Mar 2024

File Format: MKV (Matroska)
Resolution: 1280x720 px
Aspect Ratio: 16:9
Alternate Releases S L
Alert S02E04 Maya 1080p AMZN WEB-DL DDP5 1 H 264-NTb 0 1

Episode Description


Alert S02E04 Maya 720p AMZN WEB-DL DDP5 1 H 264-NTb EZTV
Ugly Alert S2E4 Screenshot


General
Unique ID: 334234051231986599563368050807686061026 (0xFB7323035E6AB5A98B8A2139AEB85BE2)
Complete name: Alert S02E04 Maya 720p AMZN WEB-DL DDP5 1 H 264-NTb.mkv
Format: Matroska
Format version: Version 4
File size: 1.02 GiB
Duration: 43 min 59 s
Overall bit rate: 3 333 kb/s
Frame rate: 23.976 FPS
Writing application: mkvmerge v81.0 ('Milliontown') 64-bit
Writing library: libebml v1.4.4 + libmatroska v1.7.1

Video
ID: 1
Format: AVC
Format/Info: Advanced Video Codec
Format profile: [email protected]
Format settings: CABAC / 4 Ref Frames
Format settings, CABAC: Yes
Format settings, Reference frames: 4 frames
Codec ID: V_MPEG4/ISO/AVC
Duration: 43 min 59 s
Bit rate mode: Constant
Bit rate: 2 691 kb/s
Nominal bit rate: 6 000 kb/s
Width: 1 280 pixels
Height: 640 pixels
Display aspect ratio: 2.000
Frame rate mode: Constant
Frame rate: 23.976 (24000/1001) FPS
Color space: YUV
Chroma subsampling: 4:2:0
Bit depth: 8 bits
Scan type: Progressive
Bits/(Pixel*Frame): 0.137
Stream size: 847 MiB (81%)
Default: Yes
Forced: No
Color range: Limited
Color primaries: BT.709
Transfer characteristics: BT.709
Matrix coefficients: BT.709

Audio
ID: 2
Format: E-AC-3
Format/Info: Enhanced AC-3
Commercial name: Dolby Digital Plus
Codec ID: A_EAC3
Duration: 43 min 59 s
Bit rate mode: Constant
Bit rate: 640 kb/s
Channel(s): 6 channels
Channel layout: L R C LFE Ls Rs
Sampling rate: 48.0 kHz
Frame rate: 31.250 FPS (1536 SPF)
Compression mode: Lossy
Stream size: 201 MiB (19%)
Language: English (US)
Service kind: Complete Main
Default: Yes
Forced: No

Text #1
ID: 3
Format: UTF-8
Codec ID: S_TEXT/UTF8
Codec ID/Info: UTF-8 Plain Text
Duration: 43 min 7 s
Bit rate: 89 b/s
Frame rate: 0.363 FPS
Count of elements: 938
Stream size: 28.4 KiB (0%)
Language: English (US)
Default: No
Forced: No

Text #2
ID: 4
Format: UTF-8
Codec ID: S_TEXT/UTF8
Codec ID/Info: UTF-8 Plain Text
Duration: 43 min 22 s
Bit rate: 95 b/s
Frame rate: 0.393 FPS
Count of elements: 1022
Stream size: 30.4 KiB (0%)
Title: SDH
Language: English (US)
Default: No
Forced: No
ssl  EZTV RSS EZTV Status | EZTV API | DMCA: [email protected]