eztvx.to | eztvstatus.org
Search title:  
TV Packs only
 

War of Faith S01E13 2024 1080p WEB-DL H264 AAC-HHWEB EZTV

Episode Breakdown
War of Faith
War of Faith TV Show S01E13

Season: 1
Episode: 13
Air Date: 26 March, 2024
Download Links
     Torrent Download     Magnet Download
     Anonymous Download
Added 2 months ago by eztv (verified).
Tracker Statistics
Seeds: 5
Peers: 1
Stats generated @ 02:23 on 30th May 2024
Torrent Info
Torrent File: War.of.Faith.S01E13.2024.1080p.WEB-DL.H264.AAC-HHWEB[EZTVx.to].mkv
Torrent Hash: 02371FFF8393DEEAF25DB8FF332C8CB650375CB9
Filesize: 652 MB
Released: 26th Mar 2024

File Format: MKV (Matroska)
Resolution: 1920x1080 px
Aspect Ratio: 16:9

War of Faith S01E13 - Episode 13

Summary:
War of Faith S01E13 2024 1080p WEB-DL H264 AAC-HHWEB EZTV
War of Faith S1E13 Screenshot


General
Unique ID: 245519011919110660052974656615576286253 (0xB8B53DDFDD180EFEE1DD390DE038B42D)
Complete name: War.of.Faith.S01E13.2024.1080p.WEB-DL.H264.AAC-HHWEB.mkv
Format: Matroska
Format version: Version 4
File size: 652 MiB
Duration: 45 min 38 s
Overall bit rate: 1 995 kb/s
Frame rate: 25.000 FPS
Encoded date: 2024-03-26 11:21:38 UTC
Writing application: mkvmerge v78.0 ('Running') 64-bit
Writing library: libebml v1.4.4 + libmatroska v1.7.1 / Lavf60.10.100

Video
ID: 1
Format: AVC
Format/Info: Advanced Video Codec
Format profile: High@L4
Format settings: CABAC / 3 Ref Frames
Format settings, CABAC: Yes
Format settings, Reference frames: 3 frames
Codec ID: V_MPEG4/ISO/AVC
Duration: 45 min 38 s
Bit rate: 1 801 kb/s
Width: 1 920 pixels
Height: 808 pixels
Display aspect ratio: 2.40:1
Frame rate mode: Constant
Frame rate: 25.000 FPS
Color space: YUV
Chroma subsampling: 4:2:0
Bit depth: 8 bits
Scan type: Progressive
Bits/(Pixel*Frame): 0.046
Stream size: 588 MiB (90%)
Language: Chinese (CH)
Default: Yes
Forced: No
Color range: Limited
Color primaries: BT.709
Transfer characteristics: BT.709
Matrix coefficients: BT.709

Audio
ID: 2
Format: AAC LC
Format/Info: Advanced Audio Codec Low Complexity
Codec ID: A_AAC-2
Duration: 45 min 38 s
Bit rate: 192 kb/s
Channel(s): 2 channels
Channel layout: L R
Sampling rate: 44.1 kHz
Frame rate: 43.066 FPS (1024 SPF)
Compression mode: Lossy
Delay relative to video: -80 ms
Stream size: 62.7 MiB (10%)
Default: No
Forced: No
ssl  EZTV RSS EZTV Status | EZTV API | DMCA: [email protected]