eztvx.to | eztvstatus.org
Search title:  
TV Packs only
 

In Blossom S01E20 2024 1080p WEB-DL H264 AAC-HHWEB EZTV

Episode Breakdown
In Blossom
In Blossom TV Show S01E20

Season: 1
Episode: 20
Air Date: 25 March, 2024
Download Links
     Torrent Download     Magnet Download
     Anonymous Download
Added 1 month ago by eztv (verified).
Tracker Statistics
Seeds: 1
Peers: 1
Stats generated @ 06:33 on 25th May 2024
Torrent Info
Torrent File: In.Blossom.S01E20.2024.1080p.WEB-DL.H264.AAC-HHWEB[EZTVx.to].mp4
Torrent Hash: 31D550A92DB4407FD92290435A3D63D9E6D41D4D
Filesize: 358 MB
Released: 25th Mar 2024

File Format: MP4 (MPEG-4)
Resolution: 1920x1080 px
Aspect Ratio: 16:9

In Blossom S01E20 - Episode 20

Summary:


In Blossom S01E20 2024 1080p WEB-DL H264 AAC-HHWEB EZTV
In Blossom S1E20 Screenshot


General
Complete name: In.Blossom.S01E20.2024.1080p.WEB-DL.H264.AAC-HHWEB.mp4
Format: MPEG-4
Format profile: Base Media
Codec ID: isom (isom/iso2/avc1/mp41)
File size: 358 MiB
Duration: 56 min 0 s
Overall bit rate mode: Variable
Overall bit rate: 894 kb/s
Frame rate: 25.000 FPS
Recorded date: 2024-03-25 12:27:53.5923637+08:00
Writing application: Lavf60.10.100

Video
ID: 1
Format: AVC
Format/Info: Advanced Video Codec
Format profile: High@L5
Format settings: CABAC / 5 Ref Frames
Format settings, CABAC: Yes
Format settings, Reference frames: 5 frames
Codec ID: avc1
Codec ID/Info: Advanced Video Coding
Duration: 56 min 0 s
Bit rate: 790 kb/s
Width: 1 920 pixels
Height: 816 pixels
Display aspect ratio: 2.35:1
Frame rate mode: Constant
Frame rate: 25.000 FPS
Color space: YUV
Chroma subsampling: 4:2:0
Bit depth: 8 bits
Scan type: Progressive
Bits/(Pixel*Frame): 0.020
Stream size: 317 MiB (88%)
Color range: Limited
Color primaries: BT.709
Transfer characteristics: BT.709
Matrix coefficients: BT.709
Codec configuration box: avcC

Audio
ID: 2
Format: AAC LC
Format/Info: Advanced Audio Codec Low Complexity
Codec ID: mp4a-40-2
Duration: 56 min 0 s
Bit rate mode: Variable
Bit rate: 96.0 kb/s
Maximum bit rate: 99.4 kb/s
Channel(s): 2 channels
Channel layout: L R
Sampling rate: 44.1 kHz
Frame rate: 43.066 FPS (1024 SPF)
Compression mode: Lossy
Stream size: 38.5 MiB (11%)
Default: Yes
Alternate group: 1

ssl  EZTV RSS EZTV Status | EZTV API | DMCA: [email protected]