eztvx.to | eztvstatus.org
Search title:  
TV Packs only
 

War of Faith S01E08 2024 1080p WEB-DL H264 AAC-HHWEB EZTV

Episode Breakdown
War of Faith
War of Faith TV Show S01E08

Season: 1
Episode: 8
Air Date: 23 March, 2024
Download Links
     Torrent Download     Magnet Download
     Anonymous Download
Added 2 months ago by eztv (verified).
Tracker Statistics
Seeds: 5
Peers: 0
Stats generated @ 02:38 on 30th May 2024
Torrent Info
Torrent File: War.of.Faith.S01E08.2024.1080p.WEB-DL.H264.AAC-HHWEB[EZTVx.to].mkv
Torrent Hash: EF2A8FCB0AE9449A1DA4A83F9719846A26CAF780
Filesize: 600 MB
Released: 24th Mar 2024

File Format: MKV (Matroska)
Resolution: 1920x1080 px
Aspect Ratio: 16:9

War of Faith S01E08 - Episode 8

Summary:
War of Faith S01E08 2024 1080p WEB-DL H264 AAC-HHWEB EZTV
War of Faith S1E8 Screenshot


General
Unique ID: 10609574133461080062389847543115486519 (0x7FB5464143318104AB075D3752D1537)
Complete name: War.of.Faith.S01E08.2024.1080p.WEB-DL.H264.AAC-HHWEB.mkv
Format: Matroska
Format version: Version 4
File size: 600 MiB
Duration: 45 min 44 s
Overall bit rate: 1 833 kb/s
Frame rate: 25.000 FPS
Encoded date: 2024-03-23 11:23:05 UTC
Writing application: mkvmerge v78.0 ('Running') 64-bit
Writing library: libebml v1.4.4 + libmatroska v1.7.1 / Lavf60.10.100

Video
ID: 1
Format: AVC
Format/Info: Advanced Video Codec
Format profile: High@L4
Format settings: CABAC / 3 Ref Frames
Format settings, CABAC: Yes
Format settings, Reference frames: 3 frames
Codec ID: V_MPEG4/ISO/AVC
Duration: 45 min 43 s
Bit rate: 1 639 kb/s
Width: 1 920 pixels
Height: 800 pixels
Display aspect ratio: 2.40:1
Frame rate mode: Constant
Frame rate: 25.000 FPS
Color space: YUV
Chroma subsampling: 4:2:0
Bit depth: 8 bits
Scan type: Progressive
Bits/(Pixel*Frame): 0.043
Stream size: 536 MiB (89%)
Language: Chinese (CH)
Default: Yes
Forced: No
Color range: Limited
Color primaries: BT.709
Transfer characteristics: BT.709
Matrix coefficients: BT.709

Audio
ID: 2
Format: AAC LC
Format/Info: Advanced Audio Codec Low Complexity
Codec ID: A_AAC-2
Duration: 45 min 44 s
Bit rate: 192 kb/s
Channel(s): 2 channels
Channel layout: L R
Sampling rate: 44.1 kHz
Frame rate: 43.066 FPS (1024 SPF)
Compression mode: Lossy
Delay relative to video: -80 ms
Stream size: 62.8 MiB (10%)
Default: No
Forced: No
ssl  EZTV RSS EZTV Status | EZTV API | DMCA: [email protected]