eztvx.to | eztvstatus.org
Search title:  
TV Packs only
 

Coma S01E04 720p WEB-DL AAC2 0 H 264-NTb EZTV

Episode Breakdown
Coma
Coma TV Show S01E04

Season: 1
Episode: 4
Air Date: 21 March, 2024
Download Links
     Torrent Download     Magnet Download
     Anonymous Download
Added 1 month ago by eztv (verified).
Tracker Statistics
Seeds: 6
Peers: 3
Stats generated @ 20:24 on 21st May 2024
Torrent Info
Torrent File: Coma S01E04 720p WEB-DL AAC2 0 H 264-NTb[EZTVx.to].mkv
Torrent Hash: 35667CA2610F744368FBEDB46E106A1635D95DE5
Filesize: 911 MB
Released: 22nd Mar 2024

File Format: MKV (Matroska)
Resolution: 1280x720 px
Aspect Ratio: 16:9

Coma S01E04 - Episode 4

Summary:

Time is running out for Simon and Beth as their lies finally catch up with them. They try to figure out their next steps. Is it time to finally give up and go to the police station? Or to run?

DS Kelly Evans starts to piece the puzzle together. She sets out on a race to find Simon, aware she's not the only one.

Simon and Beth hide out at a hotel when their daughter Sophie has an asthma attack. Their safety is put in jeopardy again when they can't find Sophie's inhaler. Simon is forced to go back to the house to save Sophie's life, but trouble awaits.

And while Simon hides in the house, Paul finds out where Beth is hiding and pays the hotel a visit…



Coma S01E04 720p WEB-DL AAC2 0 H 264-NTb EZTV
Coma S1E4 Screenshot


General
Unique ID: 162291328966201324058032777283299133790 (0x7A182C4AD84355B95A368AEC7FE7495E)
Complete name: Coma S01E04 720p WEB-DL AAC2 0 H 264-NTb.mkv
Format: Matroska
Format version: Version 4
File size: 911 MiB
Duration: 44 min 10 s
Overall bit rate: 2 883 kb/s
Frame rate: 25.000 FPS
Encoded date: 2024-03-21 21:38:10 UTC
Writing application: mkvmerge v83.0 ('Circle Of Friends') 64-bit
Writing library: libebml v1.4.5 + libmatroska v1.7.1

Video
ID: 1
Format: AVC
Format/Info: Advanced Video Codec
Format profile: [email protected]
Format settings: CABAC / 4 Ref Frames
Format settings, CABAC: Yes
Format settings, Reference frames: 4 frames
Codec ID: V_MPEG4/ISO/AVC
Duration: 44 min 10 s
Bit rate mode: Constant
Bit rate: 2 800 kb/s
Width: 1 280 pixels
Height: 720 pixels
Display aspect ratio: 16:9
Frame rate mode: Constant
Frame rate: 25.000 FPS
Color space: YUV
Chroma subsampling: 4:2:0
Bit depth: 8 bits
Scan type: Progressive
Bits/(Pixel*Frame): 0.122
Stream size: 880 MiB (97%)
Default: Yes
Forced: No
Color range: Limited

Audio
ID: 2
Format: AAC LC
Format/Info: Advanced Audio Codec Low Complexity
Codec ID: A_AAC-2
Duration: 44 min 10 s
Bit rate: 96.0 kb/s
Channel(s): 2 channels
Channel layout: L R
Sampling rate: 48.0 kHz
Frame rate: 46.875 FPS (1024 SPF)
Compression mode: Lossy
Stream size: 30.3 MiB (3%)
Language: English
Default: Yes
Forced: No

Text
ID: 3
Format: UTF-8
Codec ID: S_TEXT/UTF8
Codec ID/Info: UTF-8 Plain Text
Duration: 43 min 14 s
Bit rate: 52 b/s
Frame rate: 0.239 FPS
Count of elements: 620
Stream size: 16.6 KiB (0%)
Language: English
Default: Yes
Forced: No
ssl  EZTV RSS EZTV Status | EZTV API | DMCA: [email protected]