eztvx.to | eztvstatus.org
Search title:  
TV Packs only
 

Coma S01E03 720p WEB-DL AAC2 0 H 264-NTb EZTV

Episode Breakdown
Coma
Coma TV Show S01E03

Season: 1
Episode: 3
Air Date: 20 March, 2024
Download Links
     Torrent Download     Magnet Download
     Anonymous Download
Added 1 month ago by eztv (verified).
Tracker Statistics
Seeds: 7
Peers: 2
Stats generated @ 19:27 on 21st May 2024
Torrent Info
Torrent File: Coma S01E03 720p WEB-DL AAC2 0 H 264-NTb[EZTVx.to].mkv
Torrent Hash: 780D207AC30125B9216AB628ADDF6A8532361A69
Filesize: 943 MB
Released: 21st Mar 2024

File Format: MKV (Matroska)
Resolution: 1280x720 px
Aspect Ratio: 16:9
Alternate Releases S L
Coma S01E03 1080p WEB H264-CBFM 2 4

Coma S01E03 - Episode 3

Summary:

Simon is frantic with fear and takes matters into his own hands to get his family to safety. He threatens his old boss Jimmy: fast-track his redundancy payment or Simon will reveal that Jimmy made him redundant for a personal vendetta.

DS Evans follows up a call Simon made the night before the attack, reporting a threatening local youth. Simon insists he was mistaken, but this only makes Evans more suspicious – the holes in his story are mounting.

Simon is forced to have dinner with Paul, but it's clear the ever-increasing pressure is taking a toll. Simon blames his twitchiness on his ex-boss Jimmy making his life hell.

The next morning, Simon's redundancy pay is immediately sanctioned. Unknown to Simon, Paul enacted revenge on Jimmy, with the help of sidekick Uncle Mark. Whatever move he makes, Simon seems to end up further entangled in the Franklin family's dangerous web of crime.

DS Evans discovers CCTV footage of Simon challenging Jordan, who was bullying a homeless man outside a local shop. This was days before the attack, so why did Simon deny ever meeting Jordan before?



Coma S01E03 720p WEB-DL AAC2 0 H 264-NTb EZTV
Coma S1E3 Screenshot


General
Unique ID: 336426496476657140087178456120611170311 (0xFD1962E8D086428CF11CB8C2A081E807)
Complete name: Coma S01E03 720p WEB-DL AAC2 0 H 264-NTb.mkv
Format: Matroska
Format version: Version 4
File size: 943 MiB
Duration: 45 min 40 s
Overall bit rate: 2 887 kb/s
Frame rate: 25.000 FPS
Encoded date: 2024-03-21 18:01:05 UTC
Writing application: mkvmerge v83.0 ('Circle Of Friends') 64-bit
Writing library: libebml v1.4.5 + libmatroska v1.7.1

Video
ID: 1
Format: AVC
Format/Info: Advanced Video Codec
Format profile: [email protected]
Format settings: CABAC / 4 Ref Frames
Format settings, CABAC: Yes
Format settings, Reference frames: 4 frames
Codec ID: V_MPEG4/ISO/AVC
Duration: 45 min 40 s
Bit rate mode: Constant
Bit rate: 2 800 kb/s
Width: 1 280 pixels
Height: 720 pixels
Display aspect ratio: 16:9
Frame rate mode: Constant
Frame rate: 25.000 FPS
Color space: YUV
Chroma subsampling: 4:2:0
Bit depth: 8 bits
Scan type: Progressive
Bits/(Pixel*Frame): 0.122
Stream size: 911 MiB (97%)
Default: Yes
Forced: No
Color range: Limited

Audio
ID: 2
Format: AAC LC
Format/Info: Advanced Audio Codec Low Complexity
Codec ID: A_AAC-2
Duration: 45 min 40 s
Bit rate: 96.0 kb/s
Channel(s): 2 channels
Channel layout: L R
Sampling rate: 48.0 kHz
Frame rate: 46.875 FPS (1024 SPF)
Compression mode: Lossy
Stream size: 31.4 MiB (3%)
Language: English
Default: Yes
Forced: No

Text
ID: 3
Format: UTF-8
Codec ID: S_TEXT/UTF8
Codec ID/Info: UTF-8 Plain Text
Duration: 45 min 4 s
Bit rate: 63 b/s
Frame rate: 0.256 FPS
Count of elements: 692
Stream size: 21.1 KiB (0%)
Language: English
Default: Yes
Forced: No
ssl  EZTV RSS EZTV Status | EZTV API | DMCA: [email protected]