eztvx.to | eztvstatus.org
Search title:  
TV Packs only
 

Simple Days S01E09 2024 1080p WEB-DL H264 AAC-HHWEB EZTV

Episode Breakdown
Simple Days
Simple Days TV Show S01E09

Season: 1
Episode: 9
Air Date: 17 March, 2024
Download Links
     Torrent Download     Magnet Download
     Anonymous Download
Added 2 months ago by eztv (verified).
Tracker Statistics
Seeds: 1
Peers: 0
Stats generated @ 03:23 on 30th May 2024
Torrent Info
Torrent File: Simple.Days.S01E09.2024.1080p.WEB-DL.H264.AAC-HHWEB[EZTVx.to].mkv
Torrent Hash: 6C3F75C50EB6DD0D68FF62BFA805F03A1AC57C4E
Filesize: 448 MB
Released: 18th Mar 2024

File Format: MKV (Matroska)
Resolution: 1920x1080 px
Aspect Ratio: 16:9

Simple Days S01E09 - Episode 9

Summary:
Simple Days S01E09 2024 1080p WEB-DL H264 AAC-HHWEB EZTV
Simple Days S1E9 Screenshot


General
Unique ID: 150187906652142453050698304888154654717 (0x70FD237FEAF0225D3E900874E40887FD)
Complete name: Simple.Days.S01E09.2024.1080p.WEB-DL.H264.AAC-HHWEB.mkv
Format: Matroska
Format version: Version 4
File size: 448 MiB
Duration: 46 min 43 s
Overall bit rate: 1 339 kb/s
Frame rate: 25.000 FPS
Encoded date: 2024-03-17 11:27:30 UTC
Writing application: mkvmerge v78.0 ('Running') 64-bit
Writing library: libebml v1.4.4 + libmatroska v1.7.1

Video
ID: 1
Format: AVC
Format/Info: Advanced Video Codec
Format profile: High@L4
Format settings: CABAC / 4 Ref Frames
Format settings, CABAC: Yes
Format settings, Reference frames: 4 frames
Codec ID: V_MPEG4/ISO/AVC
Duration: 46 min 43 s
Bit rate: 1 244 kb/s
Width: 1 920 pixels
Height: 800 pixels
Display aspect ratio: 2.40:1
Frame rate mode: Constant
Frame rate: 25.000 FPS
Color space: YUV
Chroma subsampling: 4:2:0
Bit depth: 8 bits
Scan type: Progressive
Bits/(Pixel*Frame): 0.032
Stream size: 416 MiB (93%)
Language: Chinese (CH)
Default: Yes
Forced: No
Color range: Limited
Color primaries: BT.709
Transfer characteristics: BT.709
Matrix coefficients: BT.709

Audio
ID: 2
Format: AAC LC
Format/Info: Advanced Audio Codec Low Complexity
Codec ID: A_AAC-2
Duration: 46 min 43 s
Bit rate: 93.4 kb/s
Channel(s): 2 channels
Channel layout: L R
Sampling rate: 48.0 kHz
Frame rate: 46.875 FPS (1024 SPF)
Compression mode: Lossy
Stream size: 31.2 MiB (7%)
Title: zh-ch [AAC 2.0]
Language: Chinese (CH)
Default: Yes
Forced: No
ssl  EZTV RSS EZTV Status | EZTV API | DMCA: [email protected]