eztvx.to | eztvstatus.org
Search title:  
TV Packs only
 

c c Burning Flames S01E13 2024 1080p WEB-DL H264 AAC-ADWeb EZTV

Episode Breakdown
Burning Flames
Burning Flames TV Show S01E13

Season: 1
Episode: 13
Air Date: 17 March, 2024
Download Links
     Torrent Download     Magnet Download
     Anonymous Download
Added 2 months ago by eztv (verified).
Tracker Statistics
Seeds: 0
Peers: 0
Stats generated @ 02:40 on 30th May 2024
Torrent Info
Torrent File: c_^c_.Burning.Flames.S01E13.2024.1080p.WEB-DL.H264.AAC-ADWeb[EZTVx.to].mp4
Torrent Hash: 02904B418FC2EB999EAE4565BF018CFD4A452A5A
Filesize: 784 MB
Released: 18th Mar 2024

File Format: MP4 (MPEG-4)
Resolution: 1920x1080 px
Aspect Ratio: 16:9
Alternate Releases S L
c c Burning Flames S01E13 2024 1080p WEB-DL H264 AAC-ADWeb 0 0
c cBurning Flames S01E13 2024 1080p WEB-DL H264 AAC-ADWeb 0 0
c ^c Burning Flames S01E13 2024 1080p WEB-DL H264 AAC-ADWeb 0 0

Burning Flames S01E13 - Episode 13

Summary:
c c Burning Flames S01E13 2024 1080p WEB-DL H264 AAC-ADWeb EZTV
Burning Flames S1E13 Screenshot


General
Complete name: c_^c_.Burning.Flames.S01E13.2024.1080p.WEB-DL.H264.AAC-ADWeb.mp4
Format: MPEG-4
Format profile: Base Media
Codec ID: isom (isom/iso2/avc1/mp41)
File size: 784 MiB
Duration: 43 min 19 s
Overall bit rate mode: Variable
Overall bit rate: 2 529 kb/s
Frame rate: 25.000 FPS
Recorded date: 2024-03-17 19:01:16.3540060+08:00
Writing application: Lavf60.6.100

Video
ID: 1
Format: AVC
Format/Info: Advanced Video Codec
Format profile: High@L4
Format settings: CABAC / 3 Ref Frames
Format settings, CABAC: Yes
Format settings, Reference frames: 3 frames
Codec ID: avc1
Codec ID/Info: Advanced Video Coding
Duration: 43 min 19 s
Source duration: 43 min 19 s
Bit rate: 2 228 kb/s
Maximum bit rate: 2 331 kb/s
Width: 1 920 pixels
Height: 800 pixels
Display aspect ratio: 2.40:1
Frame rate mode: Constant
Frame rate: 25.000 FPS
Color space: YUV
Chroma subsampling: 4:2:0
Bit depth: 8 bits
Scan type: Progressive
Bits/(Pixel*Frame): 0.058
Stream size: 690 MiB (88%)
Source stream size: 722 MiB (92%)
Color range: Limited
Color primaries: BT.709
Transfer characteristics: BT.709
Matrix coefficients: BT.709
Codec configuration box: avcC

Audio
ID: 2
Format: AAC LC
Format/Info: Advanced Audio Codec Low Complexity
Codec ID: mp4a-40-2
Duration: 43 min 19 s
Bit rate mode: Variable
Bit rate: 192 kb/s
Maximum bit rate: 203 kb/s
Channel(s): 2 channels
Channel layout: L R
Sampling rate: 44.1 kHz
Frame rate: 43.066 FPS (1024 SPF)
Compression mode: Lossy
Stream size: 59.5 MiB (8%)
Default: Yes
Alternate group: 1
ssl  EZTV RSS EZTV Status | EZTV API | DMCA: [email protected]