eztvx.to | eztvstatus.org
Search title:  
TV Packs only
 

c c Burning Flames S01E14 2024 1080p WEB-DL H264 AAC-ADWeb EZTV

Episode Breakdown
Burning Flames
Burning Flames TV Show S01E14

Season: 1
Episode: 14
Air Date: 17 March, 2024
Download Links
     Torrent Download     Magnet Download
     Anonymous Download
Added 2 months ago by eztv (verified).
Tracker Statistics
Seeds: 0
Peers: 0
Stats generated @ 02:26 on 30th May 2024
Torrent Info
Torrent File: c_^c_.Burning.Flames.S01E14.2024.1080p.WEB-DL.H264.AAC-ADWeb[EZTVx.to].mp4
Torrent Hash: F1AA06EC9EEDBAF39E7D606A75A79C72E562C2AB
Filesize: 764 MB
Released: 18th Mar 2024

File Format: MP4 (MPEG-4)
Resolution: 1920x1080 px
Aspect Ratio: 16:9
Alternate Releases S L
c c Burning Flames S01E14 2024 1080p WEB-DL H264 AAC-ADWeb 0 0
c cBurning Flames S01E14 2024 1080p WEB-DL H264 AAC-ADWeb 0 0
c ^c Burning Flames S01E14 2024 1080p WEB-DL H264 AAC-ADWeb 0 0

Burning Flames S01E14 - Episode 14

Summary:
c c Burning Flames S01E14 2024 1080p WEB-DL H264 AAC-ADWeb EZTV
Burning Flames S1E14 Screenshot


General
Complete name: c_^c_.Burning.Flames.S01E14.2024.1080p.WEB-DL.H264.AAC-ADWeb.mp4
Format: MPEG-4
Format profile: Base Media
Codec ID: isom (isom/iso2/avc1/mp41)
File size: 764 MiB
Duration: 44 min 32 s
Overall bit rate mode: Variable
Overall bit rate: 2 396 kb/s
Frame rate: 25.000 FPS
Recorded date: 2024-03-17 19:01:21.4883069+08:00
Writing application: Lavf60.6.100

Video
ID: 1
Format: AVC
Format/Info: Advanced Video Codec
Format profile: High@L4
Format settings: CABAC / 3 Ref Frames
Format settings, CABAC: Yes
Format settings, Reference frames: 3 frames
Codec ID: avc1
Codec ID/Info: Advanced Video Coding
Duration: 44 min 32 s
Source duration: 44 min 32 s
Bit rate: 2 101 kb/s
Maximum bit rate: 2 198 kb/s
Width: 1 920 pixels
Height: 800 pixels
Display aspect ratio: 2.40:1
Frame rate mode: Constant
Frame rate: 25.000 FPS
Color space: YUV
Chroma subsampling: 4:2:0
Bit depth: 8 bits
Scan type: Progressive
Bits/(Pixel*Frame): 0.055
Stream size: 669 MiB (88%)
Source stream size: 700 MiB (92%)
Color range: Limited
Color primaries: BT.709
Transfer characteristics: BT.709
Matrix coefficients: BT.709
Codec configuration box: avcC

Audio
ID: 2
Format: AAC LC
Format/Info: Advanced Audio Codec Low Complexity
Codec ID: mp4a-40-2
Duration: 44 min 32 s
Bit rate mode: Variable
Bit rate: 192 kb/s
Maximum bit rate: 203 kb/s
Channel(s): 2 channels
Channel layout: L R
Sampling rate: 44.1 kHz
Frame rate: 43.066 FPS (1024 SPF)
Compression mode: Lossy
Stream size: 61.2 MiB (8%)
Default: Yes
Alternate group: 1
ssl  EZTV RSS EZTV Status | EZTV API | DMCA: [email protected]