eztvx.to | eztvstatus.org
Search title:  
TV Packs only
 

Burning Flames S01E11 2024 1080p WEB-DL H264 AAC-HHWEB EZTV

Episode Breakdown
Burning Flames
Burning Flames TV Show S01E11

Season: 1
Episode: 11
Air Date: 16 March, 2024
Download Links
     Torrent Download     Magnet Download
     Anonymous Download
Added 2 months ago by eztv (verified).
Tracker Statistics
Seeds: 1
Peers: 1
Stats generated @ 03:24 on 30th May 2024
Torrent Info
Torrent File: Burning.Flames.S01E11.2024.1080p.WEB-DL.H264.AAC-HHWEB[EZTVx.to].mkv
Torrent Hash: F4FC74E425CBC390ECA57CCBC74F7BD98147B793
Filesize: 769 MB
Released: 17th Mar 2024

File Format: MKV (Matroska)
Resolution: 1920x1080 px
Aspect Ratio: 16:9

Burning Flames S01E11 - Episode 11

Summary:
Burning Flames S01E11 2024 1080p WEB-DL H264 AAC-HHWEB EZTV
Burning Flames S1E11 Screenshot


General
Unique ID: 166449765559412647357423692082996810842 (0x7D390F0BBA76CD8663A4D2AB6DFF945A)
Complete name: Burning.Flames.S01E11.2024.1080p.WEB-DL.H264.AAC-HHWEB.mkv
Format: Matroska
Format version: Version 4
File size: 769 MiB
Duration: 44 min 21 s
Overall bit rate: 2 424 kb/s
Frame rate: 25.000 FPS
Encoded date: 2024-03-16 10:52:56 UTC
Writing application: mkvmerge v78.0 ('Running') 64-bit
Writing library: libebml v1.4.4 + libmatroska v1.7.1 / Lavf60.10.100

Video
ID: 1
Format: AVC
Format/Info: Advanced Video Codec
Format profile: High@L4
Format settings: CABAC / 3 Ref Frames
Format settings, CABAC: Yes
Format settings, Reference frames: 3 frames
Codec ID: V_MPEG4/ISO/AVC
Duration: 44 min 21 s
Bit rate: 2 229 kb/s
Width: 1 920 pixels
Height: 800 pixels
Display aspect ratio: 2.40:1
Frame rate mode: Constant
Frame rate: 25.000 FPS
Color space: YUV
Chroma subsampling: 4:2:0
Bit depth: 8 bits
Scan type: Progressive
Bits/(Pixel*Frame): 0.058
Stream size: 707 MiB (92%)
Language: Chinese (CH)
Default: Yes
Forced: No
Color range: Limited
Color primaries: BT.709
Transfer characteristics: BT.709
Matrix coefficients: BT.709

Audio
ID: 2
Format: AAC LC
Format/Info: Advanced Audio Codec Low Complexity
Codec ID: A_AAC-2
Duration: 44 min 21 s
Bit rate: 192 kb/s
Channel(s): 2 channels
Channel layout: L R
Sampling rate: 44.1 kHz
Frame rate: 43.066 FPS (1024 SPF)
Compression mode: Lossy
Delay relative to video: -80 ms
Stream size: 60.9 MiB (8%)
Default: No
Forced: No
ssl  EZTV RSS EZTV Status | EZTV API | DMCA: [email protected]