eztvx.to | eztvstatus.org
Search title:  
TV Packs only
 

Ode To Joy S05E03 2016 1080p WEB-DL H264 AAC-HHWEB EZTV

Episode Breakdown
Ode to Joy
Ode to Joy TV Show S05E03

Season: 5
Episode: 3
Download Links
     Torrent Download     Magnet Download
     Anonymous Download
Added 2 months ago by eztv (verified).
Tracker Statistics
Seeds: 1
Peers: 0
Stats generated @ 17:19 on 26th May 2024
Torrent Info
Torrent File: Ode.To.Joy.S05E03.2016.1080p.WEB-DL.H264.AAC-HHWEB[EZTVx.to].mkv
Torrent Hash: E55F9158168F462A04C808401509E9FC98D6B967
Filesize: 671 MB
Released: 16th Mar 2024

File Format: MKV (Matroska)
Resolution: 1920x1080 px
Aspect Ratio: 16:9

Episode Description
Ode To Joy S05E03 2016 1080p WEB-DL H264 AAC-HHWEB EZTV
Ode to Joy S5E3 Screenshot
64-bit
Writing library : libebml v1.4.4 + libmatroska v1.7.1 / Lavf60.10.100

Video
ID : 1
Format : AVC
Format/Info : Advanced Video Codec
Format profile : High@L4
Format settings : CABAC / 3 Ref Frames
Format settings, CABAC : Yes
Format settings, Reference frames : 3 frames
Codec ID : V_MPEG4/ISO/AVC
Duration : 45 min 35 s
Bit rate : 1 866 kb/s
Width : 1 920 pixels
Height : 1 080 pixels
Display aspect ratio : 16:9
Frame rate mode : Constant
Frame rate : 25.000 FPS
Color space : YUV
Chroma subsampling : 4:2:0
Bit depth : 8 bits
Scan type : Progressive
Bits/(Pixel*Frame) : 0.036
Stream size : 608 MiB (91%)
Language : Chinese (CH)
Default : Yes
Forced : No
Color range : Limited
Color primaries : BT.709
Transfer characteristics : BT.709
Matrix coefficients : BT.709

Audio
ID : 2
Format : AAC LC
Format/Info : Advanced Audio Codec Low Complexity
Codec ID : A_AAC-2
Duration : 45 min 35 s
Bit rate : 192 kb/s
Channel(s) : 2 channels
Channel layout : L R
Sampling rate : 44.1 kHz
Frame rate : 43.066 FPS (1024 SPF)
Compression mode : Lossy
Stream size : 61.9 MiB (9%)
Default : No
Forced : No



ssl  EZTV RSS EZTV Status | EZTV API | DMCA: [email protected]