eztvx.to | eztvstatus.org
Search title:  
TV Packs only
 

Alert S02E02 Benjamin Franklin 1080p AMZN WEB-DL DDP5 1 H 264-NTb EZTV

Episode Breakdown
Ugly Alert
Ugly Alert TV Show S02E02

Season: 2
Episode: 2
Download Links
     Torrent Download     Magnet Download
     Anonymous Download
Added 2 months ago by eztv (verified).
Tracker Statistics
Seeds: 2
Peers: 8
Stats generated @ 08:01 on 25th May 2024
Torrent Info
Torrent File: Alert S02E02 Benjamin Franklin 1080p AMZN WEB-DL DDP5 1 H 264-NTb[EZTVx.to].mkv
Torrent Hash: 85F35DA74D290658BBCCF095968D85F0E08D8F46
Filesize: 1.98 GB
Released: 16th Mar 2024

File Format: MKV (Matroska)
Resolution: 1920x1080 px
Aspect Ratio: 16:9

Episode Description


Alert S02E02 Benjamin Franklin 1080p AMZN WEB-DL DDP5 1 H 264-NTb EZTV
Ugly Alert S2E2 Screenshot


General
Unique ID: 58054785389989583626056884910210767821 (0x2BACF1E8E1EE253B58CCF11158195BCD)
Complete name: Alert S02E02 Benjamin Franklin 1080p AMZN WEB-DL DDP5 1 H 264-NTb.mkv
Format: Matroska
Format version: Version 4
File size: 1.98 GiB
Duration: 44 min 34 s
Overall bit rate: 6 351 kb/s
Frame rate: 23.976 FPS
Writing application: mkvmerge v81.0 ('Milliontown') 64-bit
Writing library: libebml v1.4.4 + libmatroska v1.7.1

Video
ID: 1
Format: AVC
Format/Info: Advanced Video Codec
Format profile: High@L4
Format settings: CABAC / 4 Ref Frames
Format settings, CABAC: Yes
Format settings, Reference frames: 4 frames
Codec ID: V_MPEG4/ISO/AVC
Duration: 44 min 34 s
Bit rate mode: Constant
Bit rate: 5 709 kb/s
Nominal bit rate: 10 000 kb/s
Width: 1 920 pixels
Height: 960 pixels
Display aspect ratio: 2.000
Frame rate mode: Constant
Frame rate: 23.976 (24000/1001) FPS
Color space: YUV
Chroma subsampling: 4:2:0
Bit depth: 8 bits
Scan type: Progressive
Bits/(Pixel*Frame): 0.129
Stream size: 1.78 GiB (90%)
Default: Yes
Forced: No
Color range: Limited
Color primaries: BT.709
Transfer characteristics: BT.709
Matrix coefficients: BT.709

Audio
ID: 2
Format: E-AC-3
Format/Info: Enhanced AC-3
Commercial name: Dolby Digital Plus
Codec ID: A_EAC3
Duration: 44 min 34 s
Bit rate mode: Constant
Bit rate: 640 kb/s
Channel(s): 6 channels
Channel layout: L R C LFE Ls Rs
Sampling rate: 48.0 kHz
Frame rate: 31.250 FPS (1536 SPF)
Compression mode: Lossy
Stream size: 204 MiB (10%)
Language: English (US)
Service kind: Complete Main
Default: Yes
Forced: No

Text #1
ID: 3
Format: UTF-8
Codec ID: S_TEXT/UTF8
Codec ID/Info: UTF-8 Plain Text
Duration: 43 min 46 s
Bit rate: 84 b/s
Frame rate: 0.338 FPS
Count of elements: 887
Stream size: 26.9 KiB (0%)
Language: English (US)
Default: No
Forced: No

Text #2
ID: 4
Format: UTF-8
Codec ID: S_TEXT/UTF8
Codec ID/Info: UTF-8 Plain Text
Duration: 43 min 52 s
Bit rate: 89 b/s
Frame rate: 0.363 FPS
Count of elements: 957
Stream size: 28.8 KiB (0%)
Title: SDH
Language: English (US)
Default: No
Forced: No
ssl  EZTV RSS EZTV Status | EZTV API | DMCA: [email protected]