eztvx.to | eztvstatus.org
Search title:  
TV Packs only
 

Burning Flames S01E10 2024 1080p WEB-DL H264 AAC-HHWEB EZTV

Episode Breakdown
Burning Flame
Burning Flame TV Show S01E10

Season: 1
Episode: 10
Air Date: 15 March, 2024
Download Links
     Torrent Download     Magnet Download
     Anonymous Download
Added 2 months ago by eztv (verified).
Tracker Statistics
Seeds: 1
Peers: 0
Stats generated @ 07:32 on 25th May 2024
Torrent Info
Torrent File: Burning.Flames.S01E10.2024.1080p.WEB-DL.H264.AAC-HHWEB[EZTVx.to].mkv
Torrent Hash: D19C7F0AC0FF001995033F37914A02197ABFC906
Filesize: 783 MB
Released: 15th Mar 2024

File Format: MKV (Matroska)
Resolution: 1920x1080 px
Aspect Ratio: 16:9

Burning Flame S01E10 - Episode 10

Summary:
Burning Flames S01E10 2024 1080p WEB-DL H264 AAC-HHWEB EZTV
Burning Flame S1E10 Screenshot


General
Unique ID: 202993624478345816653149580459050501664 (0x98B72665C2E55D9318D286F7501F8620)
Complete name: Burning.Flames.S01E10.2024.1080p.WEB-DL.H264.AAC-HHWEB.mkv
Format: Matroska
Format version: Version 4
File size: 783 MiB
Duration: 44 min 11 s
Overall bit rate: 2 478 kb/s
Frame rate: 25.000 FPS
Encoded date: 2024-03-15 10:51:39 UTC
Writing application: mkvmerge v78.0 ('Running') 64-bit
Writing library: libebml v1.4.4 + libmatroska v1.7.1 / Lavf60.10.100

Video
ID: 1
Format: AVC
Format/Info: Advanced Video Codec
Format profile: High@L4
Format settings: CABAC / 3 Ref Frames
Format settings, CABAC: Yes
Format settings, Reference frames: 3 frames
Codec ID: V_MPEG4/ISO/AVC
Duration: 44 min 10 s
Bit rate: 2 284 kb/s
Width: 1 920 pixels
Height: 800 pixels
Display aspect ratio: 2.40:1
Frame rate mode: Constant
Frame rate: 25.000 FPS
Color space: YUV
Chroma subsampling: 4:2:0
Bit depth: 8 bits
Scan type: Progressive
Bits/(Pixel*Frame): 0.059
Stream size: 722 MiB (92%)
Language: Chinese (CH)
Default: Yes
Forced: No
Color range: Limited
Color primaries: BT.709
Transfer characteristics: BT.709
Matrix coefficients: BT.709

Audio
ID: 2
Format: AAC LC
Format/Info: Advanced Audio Codec Low Complexity
Codec ID: A_AAC-2
Duration: 44 min 11 s
Bit rate: 192 kb/s
Channel(s): 2 channels
Channel layout: L R
Sampling rate: 44.1 kHz
Frame rate: 43.066 FPS (1024 SPF)
Compression mode: Lossy
Stream size: 60.7 MiB (8%)
Default: No
Forced: No
ssl  EZTV RSS EZTV Status | EZTV API | DMCA: [email protected]