eztvx.to | eztvstatus.org
Search title:  
TV Packs only
 

Sunrise On The River S01E13 2024 1080p WEB-DL H264 AAC-HHWEB EZTV

Episode Breakdown
Jiang he ri shang
Jiang he ri shang TV Show S01E13

Season: 1
Episode: 13
Air Date: 6 March, 2024
Download Links
     Torrent Download     Magnet Download
     Anonymous Download
Added 2 months ago by eztv (verified).
Tracker Statistics
Seeds: 0
Peers: 0
Stats generated @ 06:27 on 25th May 2024
Torrent Info
Torrent File: Sunrise.On.The.River.S01E13.2024.1080p.WEB-DL.H264.AAC-HHWEB[EZTVx.to].mp4
Torrent Hash: 76690D4554E696CF5DA043F493A2C1ACC02087B4
Filesize: 455 MB
Released: 7th Mar 2024

File Format: MP4 (MPEG-4)
Resolution: 1920x1080 px
Aspect Ratio: 16:9

Jiang he ri shang S01E13 - Episode 13

Summary:
Sunrise On The River S01E13 2024 1080p WEB-DL H264 AAC-HHWEB EZTV
Jiang he ri shang S1E13 Screenshot


General
Complete name: Sunrise.On.The.River.S01E13.2024.1080p.WEB-DL.H264.AAC-HHWEB.mp4
Format: MPEG-4
Format profile: Base Media
Codec ID: isom (isom/iso2/avc1/mp41)
File size: 455 MiB
Duration: 44 min 39 s
Overall bit rate mode: Variable
Overall bit rate: 1 426 kb/s
Frame rate: 25.000 FPS
Recorded date: 2024-03-06 20:39:30.4230892+08:00
Writing application: Lavf60.10.100

Video
ID: 1
Format: AVC
Format/Info: Advanced Video Codec
Format profile: High@L4
Format settings: CABAC / 4 Ref Frames
Format settings, CABAC: Yes
Format settings, Reference frames: 4 frames
Codec ID: avc1
Codec ID/Info: Advanced Video Coding
Duration: 44 min 39 s
Bit rate: 1 230 kb/s
Width: 1 920 pixels
Height: 1 080 pixels
Display aspect ratio: 16:9
Frame rate mode: Constant
Frame rate: 25.000 FPS
Color space: YUV
Chroma subsampling: 4:2:0
Bit depth: 8 bits
Scan type: Progressive
Bits/(Pixel*Frame): 0.024
Stream size: 393 MiB (86%)
Writing library: 211111.mgtv.com
Color range: Limited
Color primaries: BT.709
Transfer characteristics: BT.709
Matrix coefficients: BT.709
Codec configuration box: avcC

Audio
ID: 2
Format: AAC LC
Format/Info: Advanced Audio Codec Low Complexity
Codec ID: mp4a-40-2
Duration: 44 min 39 s
Bit rate mode: Variable
Bit rate: 192 kb/s
Channel(s): 2 channels
Channel layout: L R
Sampling rate: 44.1 kHz
Frame rate: 43.066 FPS (1024 SPF)
Compression mode: Lossy
Stream size: 60.5 MiB (13%)
Default: Yes
Alternate group: 1
ssl  EZTV RSS EZTV Status | EZTV API | DMCA: [email protected]