eztvx.to | eztvstatus.org
Search title:  
TV Packs only
 

Las Fierbinti S25E10 1080p WEB-DL AAC2 0 H 264-playWEB EZTV

Episode Breakdown
Las Fierbinti
Las Fierbinti TV Show S25E10

Season: 25
Episode: 10
Air Date: 5 March, 2024
Download Links
     Torrent Download     Magnet Download
     Anonymous Download
Added 2 months ago by eztv (verified).
Tracker Statistics
Seeds: 0
Peers: 0
Stats generated @ 18:47 on 27th May 2024
Torrent Info
Torrent File: Las.Fierbinti.S25E10.1080p.WEB-DL.AAC2.0.H.264-playWEB[EZTVx.to].mkv
Torrent Hash: B86405C15AD7EC5D275815FD0ECBD20D3F99C749
Filesize: 1.61 GB
Released: 6th Mar 2024

File Format: MKV (Matroska)
Resolution: 1920x1080 px
Aspect Ratio: 16:9

Las Fierbinti S25E10 - Cultură la sat (1)

Summary:
Las Fierbinti S25E10 1080p WEB-DL AAC2 0 H 264-playWEB EZTV
Las Fierbinti S25E10 Screenshot


General
Unique ID: 274180380876764351484716433764560449831 (0xCE4538773C905F124567C6209C28B127)
Complete name: Las.Fierbinti.S25E10.1080p.WEB-DL.AAC2.0.H.264-playWEB.mkv
Format: Matroska
Format version: Version 4
File size: 1.61 GiB
Duration: 45 min 3 s
Overall bit rate mode: Variable
Overall bit rate: 5 131 kb/s
Frame rate: 25.000 FPS
Writing application: mkvmerge v82.0 ('I'm The President') 64-bit
Writing library: libebml v1.4.5 + libmatroska v1.7.1 / Lavf59.0.100

Video
ID: 1
Format: AVC
Format/Info: Advanced Video Codec
Format profile: Main@L4
Format settings: CABAC / 4 Ref Frames
Format settings, CABAC: Yes
Format settings, Reference frames: 4 frames
Codec ID: V_MPEG4/ISO/AVC
Duration: 45 min 3 s
Bit rate mode: Variable
Bit rate: 5 000 kb/s
Width: 1 920 pixels
Height: 1 080 pixels
Display aspect ratio: 16:9
Frame rate mode: Constant
Frame rate: 25.000 FPS
Color space: YUV
Chroma subsampling: 4:2:0
Bit depth: 8 bits
Scan type: Progressive
Bits/(Pixel*Frame): 0.096
Stream size: 1.57 GiB (97%)
Default: Yes
Forced: No
Color range: Limited
Color primaries: BT.709
Transfer characteristics: BT.709
Matrix coefficients: BT.709

Audio
ID: 2
Format: AAC LC
Format/Info: Advanced Audio Codec Low Complexity
Codec ID: A_AAC-2
Duration: 45 min 3 s
Bit rate: 128 kb/s
Channel(s): 2 channels
Channel layout: L R
Sampling rate: 44.1 kHz
Frame rate: 43.066 FPS (1024 SPF)
Compression mode: Lossy
Stream size: 41.2 MiB (2%)
Language: Romanian
Default: Yes
Forced: No

ssl  EZTV RSS EZTV Status | EZTV API | DMCA: [email protected]