eztvx.to | eztvstatus.org
Search title:  
TV Packs only
 

Sen i i al Kapimi S02E17 720p MAX WEB-DL DD+2 0 H 264-playWEB EZTV

Episode Breakdown
REC
REC TV Show S02E17

Season: 2
Episode: 17
Download Links
     Torrent Download     Magnet Download
     Anonymous Download
Added 3 months ago by eztv (verified).
Tracker Statistics
Seeds: 0
Peers: 0
Stats generated @ 17:36 on 25th Jun 2024
Torrent Info
Torrent File: Sen.i_i_al.Kapimi.S02E17.720p.MAX.WEB-DL.DD+2.0.H.264-playWEB[EZTVx.to].mkv
Torrent Hash: 4D30F6B64AFF2D48CCFBB57DA2A2B19E636C5C55
Filesize: 570 MB
Released: 2nd Mar 2024

File Format: MKV (Matroska)
Resolution: 1280x720 px
Aspect Ratio: 16:9

Episode Description
Sen i i al Kapimi S02E17 720p MAX WEB-DL DD+2 0 H 264-playWEB EZTV
REC S2E17 Screenshot


General
Unique ID: 215719835558846083616033822995803563069 (0xA24A210C0C9CB45CDE6929E8569C643D)
Complete name: Sen.i_i_al.Kapimi.S02E17.720p.MAX.WEB-DL.DD+2.0.H.264-playWEB.mkv
Format: Matroska
Format version: Version 4
File size: 570 MiB
Duration: 44 min 32 s
Overall bit rate mode: Variable
Overall bit rate: 1 789 kb/s
Frame rate: 29.970 FPS
Writing application: mkvmerge v82.0 ('I'm The President') 64-bit
Writing library: libebml v1.4.5 + libmatroska v1.7.1

Video
ID: 1
Format: AVC
Format/Info: Advanced Video Codec
Format profile: [email protected]
Format settings: CABAC / 4 Ref Frames
Format settings, CABAC: Yes
Format settings, Reference frames: 4 frames
Codec ID: V_MPEG4/ISO/AVC
Duration: 44 min 32 s
Bit rate mode: Variable
Bit rate: 1 659 kb/s
Maximum bit rate: 4 000 kb/s
Width: 1 280 pixels
Height: 720 pixels
Display aspect ratio: 16:9
Frame rate mode: Constant
Frame rate: 29.970 (30000/1001) FPS
Color space: YUV
Chroma subsampling: 4:2:0
Bit depth: 8 bits
Scan type: Progressive
Bits/(Pixel*Frame): 0.060
Stream size: 528 MiB (93%)
Writing library: x264 core 164
Encoding settings: cabac=1 / ref=4 / deblock=1:0:0 / analyse=0x3:0x133 / me=umh / subme=10 / psy=1 / psy_rd=1.00:0.00 / mixed_ref=1 / me_range=24 / chroma_me=1 / trellis=2 / 8x8dct=1 / cqm=0 / deadzone=21,11 / fast_pskip=1 / chroma_qp_offset=-2 / threads=22 / lookahead_threads=1 / sliced_threads=0 / nr=0 / decimate=1 / interlaced=0 / bluray_compat=0 / stitchable=1 / constrained_intra=0 / bframes=3 / b_pyramid=2 / b_adapt=2 / b_bias=0 / direct=3 / weightb=1 / open_gop=0 / weightp=2 / keyint=120 / keyint_min=61 / scenecut=0 / intra_refresh=0 / rc_lookahead=120 / rc=crf / mbtree=1 / crf=21.0 / qcomp=0.60 / qpmin=0 / qpmax=69 / qpstep=4 / vbv_maxrate=4000 / vbv_bufsize=16000 / crf_max=0.0 / nal_hrd=vbr / filler=0 / ip_ratio=1.40 / aq=1:1.00
Default: Yes
Forced: No
Color range: Limited
Color primaries: BT.709
Transfer characteristics: BT.709
Matrix coefficients: BT.709

Audio
ID: 2
Format: E-AC-3
Format/Info: Enhanced AC-3
Commercial name: Dolby Digital Plus
Codec ID: A_EAC3
Duration: 44 min 32 s
Bit rate mode: Constant
Bit rate: 128 kb/s
Channel(s): 2 channels
Channel layout: L R
Sampling rate: 48.0 kHz
Frame rate: 31.250 FPS (1536 SPF)
Compression mode: Lossy
Stream size: 40.8 MiB (7%)
Language: Turkish
Service kind: Complete Main
Default: Yes
Forced: No

Text #1
ID: 3
Format: UTF-8
Codec ID: S_TEXT/UTF8
Codec ID/Info: UTF-8 Plain Text
Duration: 43 min 19 s
Bit rate: 75 b/s
Frame rate: 0.252 FPS
Count of elements: 654
Stream size: 23.9 KiB (0%)
Language: English
Default: No
Forced: No

Text #2
ID: 4
Format: UTF-8
Codec ID: S_TEXT/UTF8
Codec ID/Info: UTF-8 Plain Text
Duration: 43 min 19 s
Bit rate: 77 b/s
Frame rate: 0.243 FPS
Count of elements: 631
Stream size: 24.7 KiB (0%)
Title: Latin American
Language: Spanish
Default: No
Forced: No

Text #3
ID: 5
Format: UTF-8
Codec ID: S_TEXT/UTF8
Codec ID/Info: UTF-8 Plain Text
Duration: 43 min 19 s
Bit rate: 77 b/s
Frame rate: 0.243 FPS
Count of elements: 631
Stream size: 24.7 KiB (0%)
Title: Brazilian
Language: Portuguese
Default: No
Forced: No

Menu
00:00:00.000: en:Chapter 1
00:43:31.742: en:Credits
00:44:36.507: en:Chapter 2
ssl  EZTV RSS EZTV Status | EZTV API | DMCA: [email protected]