eztvx.to | eztvstatus.org
Search title:  
TV Packs only
 

The Great Rhino Robbery S01E02 Dead or Alive 1080p SKST WEB-DL DD+2 0 H 264-playWEB EZTV

Episode Breakdown
The Great Rhino Robbery
The Great Rhino Robbery TV Show S01E02

Season: 1
Episode: 2
Air Date: 4 January, 2024
Download Links
     Torrent Download     Magnet Download
     Anonymous Download
Added 2 months ago by eztv (verified).
Tracker Statistics
Seeds: 0
Peers: 1
Stats generated @ 02:26 on 30th May 2024
Torrent Info
Torrent File: The.Great.Rhino.Robbery.S01E02.Dead.or.Alive.1080p.SKST.WEB-DL.DD+2.0.H.264-playWEB[EZTVx.to].mkv
Torrent Hash: D7FF0347F812A1F0FC915DB413CB404D347DF9EE
Filesize: 2.66 GB
Released: 1st Mar 2024

File Format: MKV (Matroska)
Resolution: 1920x1080 px
Aspect Ratio: 16:9
Alternate Releases S L
The Great Rhino Robbery S01E02 1080p WEB H264-CBFM 0 2
The Great Rhino Robbery S01E02 XviD-AFG 0 2
The Great Rhino Robbery S01E02 Dead or Alive 1080p SKST WEB-DL DD 2 0 H 264-playWEB 0 3

The Great Rhino Robbery S01E02 - Dead or Alive

Summary:

The trade in rhinos explodes as demand for horn increases. Criminals start hunting live rhinos as the crimewave spirals into an existential crisis.



The Great Rhino Robbery S01E02 Dead or Alive 1080p SKST WEB-DL DD+2 0 H 264-playWEB EZTV
The Great Rhino Robbery S1E2 Screenshot


General
Unique ID: 169613738648871823511822730877392972983 (0x7F9A6AF68916F0892FB5F99218BCECB7)
Complete name: The.Great.Rhino.Robbery.S01E02.Dead.or.Alive.1080p.SKST.WEB-DL.DD+2.0.H.264-playWEB.mkv
Format: Matroska
Format version: Version 4
File size: 2.66 GiB
Duration: 48 min 12 s
Overall bit rate: 7 912 kb/s
Frame rate: 25.000 FPS
Writing application: mkvmerge v82.0 ('I'm The President') 64-bit
Writing library: libebml v1.4.5 + libmatroska v1.7.1

Video
ID: 1
Format: AVC
Format/Info: Advanced Video Codec
Format profile: High@L4
Format settings: CABAC / 3 Ref Frames
Format settings, CABAC: Yes
Format settings, Reference frames: 3 frames
Codec ID: V_MPEG4/ISO/AVC
Duration: 48 min 12 s
Bit rate: 7 830 kb/s
Width: 1 920 pixels
Height: 1 080 pixels
Display aspect ratio: 16:9
Frame rate mode: Constant
Frame rate: 25.000 FPS
Color space: YUV
Chroma subsampling: 4:2:0
Bit depth: 8 bits
Scan type: Progressive
Bits/(Pixel*Frame): 0.151
Stream size: 2.63 GiB (99%)
Writing library: x264 core 148 r236 a01e339
Encoding settings: cabac=1 / ref=3 / deblock=1:0:0 / analyse=0x3:0x113 / me=umh / subme=7 / psy=1 / psy_rd=0.00:0.00 / mixed_ref=1 / me_range=16 / chroma_me=1 / trellis=1 / 8x8dct=1 / cqm=0 / deadzone=21,11 / fast_pskip=1 / chroma_qp_offset=0 / threads=34 / lookahead_threads=5 / sliced_threads=0 / nr=0 / decimate=1 / interlaced=0 / bluray_compat=0 / constrained_intra=0 / bframes=2 / b_pyramid=0 / b_adapt=1 / b_bias=0 / direct=1 / weightb=1 / open_gop=0 / weightp=2 / keyint=50 / keyint_min=5 / scenecut=0 / intra_refresh=0 / rc_lookahead=50 / rc=2pass / mbtree=1 / bitrate=7830 / ratetol=1.0 / qcomp=0.60 / qpmin=10 / qpmax=51 / qpstep=4 / cplxblur=20.0 / qblur=0.5 / vbv_maxrate=11745 / vbv_bufsize=11745 / nal_hrd=none / filler=0 / ip_ratio=1.41 / aq=1:1.00
Default: Yes
Forced: No
Color range: Limited
Color primaries: BT.709
Transfer characteristics: BT.709
Matrix coefficients: BT.709

Audio
ID: 2
Format: E-AC-3
Format/Info: Enhanced AC-3
Commercial name: Dolby Digital Plus
Format settings: Dolby Surround
Codec ID: A_EAC3
Duration: 48 min 12 s
Bit rate mode: Constant
Bit rate: 96.0 kb/s
Channel(s): 2 channels
Channel layout: L R
Sampling rate: 48.0 kHz
Frame rate: 31.250 FPS (1536 SPF)
Compression mode: Lossy
Stream size: 33.1 MiB (1%)
Title: British
Language: English
Service kind: Complete Main
Default: Yes
Forced: No

Text #1
ID: 3
Format: UTF-8
Codec ID: S_TEXT/UTF8
Codec ID/Info: UTF-8 Plain Text
Duration: 47 min 41 s
Bit rate: 110 b/s
Frame rate: 0.224 FPS
Count of elements: 642
Stream size: 38.7 KiB (0%)
Language: Bulgarian
Default: No
Forced: No

Text #2
ID: 4
Format: UTF-8
Codec ID: S_TEXT/UTF8
Codec ID/Info: UTF-8 Plain Text
Duration: 47 min 32 s
Bit rate: 72 b/s
Frame rate: 0.223 FPS
Count of elements: 635
Stream size: 25.2 KiB (0%)
Language: Czech
Default: No
Forced: No

Text #3
ID: 5
Format: UTF-8
Codec ID: S_TEXT/UTF8
Codec ID/Info: UTF-8 Plain Text
Duration: 47 min 32 s
Bit rate: 63 b/s
Frame rate: 0.217 FPS
Count of elements: 618
Stream size: 22.0 KiB (0%)
Language: Danish
Default: No
Forced: No

Text #4
ID: 6
Format: UTF-8
Codec ID: S_TEXT/UTF8
Codec ID/Info: UTF-8 Plain Text
Duration: 46 min 59 s
Bit rate: 78 b/s
Frame rate: 0.214 FPS
Count of elements: 602
Stream size: 26.9 KiB (0%)
Title: British
Language: English
Default: No
Forced: No

Text #5
ID: 7
Format: UTF-8
Codec ID: S_TEXT/UTF8
Codec ID/Info: UTF-8 Plain Text
Duration: 47 min 41 s
Bit rate: 73 b/s
Frame rate: 0.220 FPS
Count of elements: 631
Stream size: 25.6 KiB (0%)
Language: Spanish (ES)
Default: No
Forced: No

Text #6
ID: 8
Format: UTF-8
Codec ID: S_TEXT/UTF8
Codec ID/Info: UTF-8 Plain Text
Duration: 47 min 32 s
Bit rate: 69 b/s
Frame rate: 0.221 FPS
Count of elements: 630
Stream size: 24.4 KiB (0%)
Language: Finnish
Default: No
Forced: No

Text #7
ID: 9
Format: UTF-8
Codec ID: S_TEXT/UTF8
Codec ID/Info: UTF-8 Plain Text
Duration: 47 min 41 s
Bit rate: 70 b/s
Frame rate: 0.220 FPS
Count of elements: 630
Stream size: 24.6 KiB (0%)
Language: Croatian
Default: No
Forced: No

Text #8
ID: 10
Format: UTF-8
Codec ID: S_TEXT/UTF8
Codec ID/Info: UTF-8 Plain Text
Duration: 47 min 32 s
Bit rate: 71 b/s
Frame rate: 0.222 FPS
Count of elements: 633
Stream size: 24.8 KiB (0%)
Language: Hungarian
Default: No
Forced: No

Text #9
ID: 11
Format: UTF-8
Codec ID: S_TEXT/UTF8
Codec ID/Info: UTF-8 Plain Text
Duration: 47 min 41 s
Bit rate: 67 b/s
Frame rate: 0.220 FPS
Count of elements: 629
Stream size: 23.5 KiB (0%)
Language: Norwegian Bokmal
Default: No
Forced: No

Text #10
ID: 12
Format: UTF-8
Codec ID: S_TEXT/UTF8
Codec ID/Info: UTF-8 Plain Text
Duration: 47 min 32 s
Bit rate: 73 b/s
Frame rate: 0.219 FPS
Count of elements: 625
Stream size: 25.6 KiB (0%)
Language: Dutch
Default: No
Forced: No

Text #11
ID: 13
Format: UTF-8
Codec ID: S_TEXT/UTF8
Codec ID/Info: UTF-8 Plain Text
Duration: 47 min 32 s
Bit rate: 67 b/s
Frame rate: 0.220 FPS
Count of elements: 628
Stream size: 23.3 KiB (0%)
Language: Polish (PL)
Default: No
Forced: No

Text #12
ID: 14
Format: UTF-8
Codec ID: S_TEXT/UTF8
Codec ID/Info: UTF-8 Plain Text
Duration: 47 min 32 s
Bit rate: 71 b/s
Frame rate: 0.221 FPS
Count of elements: 629
Stream size: 25.0 KiB (0%)
Title: European
Language: Portuguese
Default: No
Forced: No

Text #13
ID: 15
Format: UTF-8
Codec ID: S_TEXT/UTF8
Codec ID/Info: UTF-8 Plain Text
Duration: 47 min 41 s
Bit rate: 74 b/s
Frame rate: 0.221 FPS
Count of elements: 632
Stream size: 26.0 KiB (0%)
Language: Romanian
Default: No
Forced: No

Text #14
ID: 16
Format: UTF-8
Codec ID: S_TEXT/UTF8
Codec ID/Info: UTF-8 Plain Text
Duration: 47 min 32 s
Bit rate: 72 b/s
Frame rate: 0.222 FPS
Count of elements: 632
Stream size: 25.2 KiB (0%)
Language: Slovak
Default: No
Forced: No

Text #15
ID: 17
Format: UTF-8
Codec ID: S_TEXT/UTF8
Codec ID/Info: UTF-8 Plain Text
Duration: 47 min 32 s
Bit rate: 63 b/s
Frame rate: 0.221 FPS
Count of elements: 631
Stream size: 22.0 KiB (0%)
Title: Slovenia
Language: Slovenian
Default: No
Forced: No

Text #16
ID: 18
Format: UTF-8
Codec ID: S_TEXT/UTF8
Codec ID/Info: UTF-8 Plain Text
Duration: 47 min 41 s
Bit rate: 67 b/s
Frame rate: 0.224 FPS
Count of elements: 641
Stream size: 23.6 KiB (0%)
Title: Cyrillic, Serbia
Language: Serbian
Default: No
Forced: No

Text #17
ID: 19
Format: UTF-8
Codec ID: S_TEXT/UTF8
Codec ID/Info: UTF-8 Plain Text
Duration: 47 min 32 s
Bit rate: 73 b/s
Frame rate: 0.220 FPS
Count of elements: 628
Stream size: 25.5 KiB (0%)
Language: Swedish
Default: No
Forced: No
ssl  EZTV RSS EZTV Status | EZTV API | DMCA: [email protected]