eztvx.to | eztvstatus.org
Search title:  
TV Packs only
 

The Great Rhino Robbery S01E01 A Very British Crime Wave 1080p SKST WEB-DL DD+2 0 H 264-playWEB EZTV

Episode Breakdown
The Great Rhino Robbery
The Great Rhino Robbery TV Show S01E01

Season: 1
Episode: 1
Air Date: 3 January, 2024
Download Links
     Torrent Download     Magnet Download
     Anonymous Download
Added 2 months ago by eztv (verified).
Tracker Statistics
Seeds: 0
Peers: 1
Stats generated @ 02:55 on 30th May 2024
Torrent Info
Torrent File: The.Great.Rhino.Robbery.S01E01.A.Very.British.Crime.Wave.1080p.SKST.WEB-DL.DD+2.0.H.264-playWEB[EZTVx.to].mkv
Torrent Hash: ED55CED8F096826AF6716BF12AC2D1008A5ABA6B
Filesize: 2.52 GB
Released: 1st Mar 2024

File Format: MKV (Matroska)
Resolution: 1920x1080 px
Aspect Ratio: 16:9
Alternate Releases S L
The Great Rhino Robbery S01E01 1080p WEB H264-CBFM 0 1
The Great Rhino Robbery S01E01 XviD-AFG 3 1
The Great Rhino Robbery S01E01 A Very British Crime Wave 1080p SKST WEB-DL DD 2 0 H 264-playWEB 0 1

The Great Rhino Robbery S01E01 - A Very British Crime Wave

Summary:

Criminals start stealing rhino horns from museums in a bizarrely British crimewave and the police don't know who's behind it.



The Great Rhino Robbery S01E01 A Very British Crime Wave 1080p SKST WEB-DL DD+2 0 H 264-playWEB EZTV
The Great Rhino Robbery S1E1 Screenshot


General
Unique ID: 304563934787842095267920737659712871520 (0xE520E154B5E7996709C98747672E9C60)
Complete name: The.Great.Rhino.Robbery.S01E01.A.Very.British.Crime.Wave.1080p.SKST.WEB-DL.DD+2.0.H.264-playWEB.mkv
Format: Matroska
Format version: Version 4
File size: 2.52 GiB
Duration: 45 min 34 s
Overall bit rate: 7 911 kb/s
Frame rate: 25.000 FPS
Writing application: mkvmerge v82.0 ('I'm The President') 64-bit
Writing library: libebml v1.4.5 + libmatroska v1.7.1

Video
ID: 1
Format: AVC
Format/Info: Advanced Video Codec
Format profile: High@L4
Format settings: CABAC / 3 Ref Frames
Format settings, CABAC: Yes
Format settings, Reference frames: 3 frames
Codec ID: V_MPEG4/ISO/AVC
Duration: 45 min 34 s
Bit rate: 7 830 kb/s
Width: 1 920 pixels
Height: 1 080 pixels
Display aspect ratio: 16:9
Frame rate mode: Constant
Frame rate: 25.000 FPS
Color space: YUV
Chroma subsampling: 4:2:0
Bit depth: 8 bits
Scan type: Progressive
Bits/(Pixel*Frame): 0.151
Stream size: 2.49 GiB (99%)
Writing library: x264 core 148 r236 a01e339
Encoding settings: cabac=1 / ref=3 / deblock=1:0:0 / analyse=0x3:0x113 / me=umh / subme=7 / psy=1 / psy_rd=0.00:0.00 / mixed_ref=1 / me_range=16 / chroma_me=1 / trellis=1 / 8x8dct=1 / cqm=0 / deadzone=21,11 / fast_pskip=1 / chroma_qp_offset=0 / threads=34 / lookahead_threads=5 / sliced_threads=0 / nr=0 / decimate=1 / interlaced=0 / bluray_compat=0 / constrained_intra=0 / bframes=2 / b_pyramid=0 / b_adapt=1 / b_bias=0 / direct=1 / weightb=1 / open_gop=0 / weightp=2 / keyint=50 / keyint_min=5 / scenecut=0 / intra_refresh=0 / rc_lookahead=50 / rc=2pass / mbtree=1 / bitrate=7830 / ratetol=1.0 / qcomp=0.60 / qpmin=10 / qpmax=51 / qpstep=4 / cplxblur=20.0 / qblur=0.5 / vbv_maxrate=11745 / vbv_bufsize=11745 / nal_hrd=none / filler=0 / ip_ratio=1.41 / aq=1:1.00
Default: Yes
Forced: No
Color range: Limited
Color primaries: BT.709
Transfer characteristics: BT.709
Matrix coefficients: BT.709

Audio
ID: 2
Format: E-AC-3
Format/Info: Enhanced AC-3
Commercial name: Dolby Digital Plus
Format settings: Dolby Surround
Codec ID: A_EAC3
Duration: 45 min 34 s
Bit rate mode: Constant
Bit rate: 96.0 kb/s
Channel(s): 2 channels
Channel layout: L R
Sampling rate: 48.0 kHz
Frame rate: 31.250 FPS (1536 SPF)
Compression mode: Lossy
Stream size: 31.3 MiB (1%)
Title: British
Language: English
Service kind: Complete Main
Default: Yes
Forced: No

Text #1
ID: 3
Format: UTF-8
Codec ID: S_TEXT/UTF8
Codec ID/Info: UTF-8 Plain Text
Duration: 45 min 21 s
Bit rate: 135 b/s
Frame rate: 0.255 FPS
Count of elements: 693
Stream size: 44.9 KiB (0%)
Language: Bulgarian
Default: No
Forced: No

Text #2
ID: 4
Format: UTF-8
Codec ID: S_TEXT/UTF8
Codec ID/Info: UTF-8 Plain Text
Duration: 45 min 21 s
Bit rate: 84 b/s
Frame rate: 0.252 FPS
Count of elements: 687
Stream size: 28.0 KiB (0%)
Language: Czech
Default: No
Forced: No

Text #3
ID: 5
Format: UTF-8
Codec ID: S_TEXT/UTF8
Codec ID/Info: UTF-8 Plain Text
Duration: 45 min 21 s
Bit rate: 69 b/s
Frame rate: 0.244 FPS
Count of elements: 663
Stream size: 23.0 KiB (0%)
Language: Danish
Default: No
Forced: No

Text #4
ID: 6
Format: UTF-8
Codec ID: S_TEXT/UTF8
Codec ID/Info: UTF-8 Plain Text
Duration: 44 min 29 s
Bit rate: 79 b/s
Frame rate: 0.206 FPS
Count of elements: 551
Stream size: 26.0 KiB (0%)
Title: British
Language: English
Default: No
Forced: No

Text #5
ID: 7
Format: UTF-8
Codec ID: S_TEXT/UTF8
Codec ID/Info: UTF-8 Plain Text
Duration: 45 min 21 s
Bit rate: 84 b/s
Frame rate: 0.251 FPS
Count of elements: 684
Stream size: 28.0 KiB (0%)
Language: Spanish (ES)
Default: No
Forced: No

Text #6
ID: 8
Format: UTF-8
Codec ID: S_TEXT/UTF8
Codec ID/Info: UTF-8 Plain Text
Duration: 45 min 21 s
Bit rate: 75 b/s
Frame rate: 0.251 FPS
Count of elements: 684
Stream size: 25.2 KiB (0%)
Language: Finnish
Default: No
Forced: No

Text #7
ID: 9
Format: UTF-8
Codec ID: S_TEXT/UTF8
Codec ID/Info: UTF-8 Plain Text
Duration: 45 min 21 s
Bit rate: 74 b/s
Frame rate: 0.251 FPS
Count of elements: 684
Stream size: 24.9 KiB (0%)
Language: Croatian
Default: No
Forced: No

Text #8
ID: 10
Format: UTF-8
Codec ID: S_TEXT/UTF8
Codec ID/Info: UTF-8 Plain Text
Duration: 45 min 21 s
Bit rate: 76 b/s
Frame rate: 0.251 FPS
Count of elements: 682
Stream size: 25.3 KiB (0%)
Language: Hungarian
Default: No
Forced: No

Text #9
ID: 11
Format: UTF-8
Codec ID: S_TEXT/UTF8
Codec ID/Info: UTF-8 Plain Text
Duration: 45 min 21 s
Bit rate: 75 b/s
Frame rate: 0.248 FPS
Count of elements: 676
Stream size: 25.1 KiB (0%)
Language: Norwegian Bokmal
Default: No
Forced: No

Text #10
ID: 12
Format: UTF-8
Codec ID: S_TEXT/UTF8
Codec ID/Info: UTF-8 Plain Text
Duration: 45 min 21 s
Bit rate: 83 b/s
Frame rate: 0.249 FPS
Count of elements: 678
Stream size: 27.9 KiB (0%)
Language: Dutch
Default: No
Forced: No

Text #11
ID: 13
Format: UTF-8
Codec ID: S_TEXT/UTF8
Codec ID/Info: UTF-8 Plain Text
Duration: 45 min 21 s
Bit rate: 77 b/s
Frame rate: 0.252 FPS
Count of elements: 686
Stream size: 25.7 KiB (0%)
Language: Polish (PL)
Default: No
Forced: No

Text #12
ID: 14
Format: UTF-8
Codec ID: S_TEXT/UTF8
Codec ID/Info: UTF-8 Plain Text
Duration: 45 min 21 s
Bit rate: 79 b/s
Frame rate: 0.250 FPS
Count of elements: 680
Stream size: 26.5 KiB (0%)
Title: European
Language: Portuguese
Default: No
Forced: No

Text #13
ID: 15
Format: UTF-8
Codec ID: S_TEXT/UTF8
Codec ID/Info: UTF-8 Plain Text
Duration: 45 min 21 s
Bit rate: 82 b/s
Frame rate: 0.251 FPS
Count of elements: 684
Stream size: 27.3 KiB (0%)
Language: Romanian
Default: No
Forced: No

Text #14
ID: 16
Format: UTF-8
Codec ID: S_TEXT/UTF8
Codec ID/Info: UTF-8 Plain Text
Duration: 45 min 21 s
Bit rate: 82 b/s
Frame rate: 0.254 FPS
Count of elements: 690
Stream size: 27.5 KiB (0%)
Language: Slovak
Default: No
Forced: No

Text #15
ID: 17
Format: UTF-8
Codec ID: S_TEXT/UTF8
Codec ID/Info: UTF-8 Plain Text
Duration: 45 min 21 s
Bit rate: 73 b/s
Frame rate: 0.252 FPS
Count of elements: 685
Stream size: 24.4 KiB (0%)
Title: Slovenia
Language: Slovenian
Default: No
Forced: No

Text #16
ID: 18
Format: UTF-8
Codec ID: S_TEXT/UTF8
Codec ID/Info: UTF-8 Plain Text
Duration: 45 min 21 s
Bit rate: 76 b/s
Frame rate: 0.255 FPS
Count of elements: 694
Stream size: 25.4 KiB (0%)
Title: Cyrillic, Serbia
Language: Serbian
Default: No
Forced: No

Text #17
ID: 19
Format: UTF-8
Codec ID: S_TEXT/UTF8
Codec ID/Info: UTF-8 Plain Text
Duration: 45 min 21 s
Bit rate: 83 b/s
Frame rate: 0.249 FPS
Count of elements: 678
Stream size: 27.6 KiB (0%)
Language: Swedish
Default: No
Forced: No
ssl  EZTV RSS EZTV Status | EZTV API | DMCA: [email protected]