eztvx.to | eztvstatus.org
Search title:  
TV Packs only
 

Iwj S01E06 Tola 720p DSNP WEB-DL DD 5 1 Atmos H 264-playWEB EZTV

Episode Breakdown
Wij
Wij TV Show S01E06

Season: 1
Episode: 6
Download Links
     Torrent Download     Magnet Download
     Anonymous Download
Added 2 months ago by eztv (verified).
Tracker Statistics
Seeds: 0
Peers: 0
Stats generated @ 17:59 on 26th May 2024
Torrent Info
Torrent File: Iwj.S01E06.Tola.720p.DSNP.WEB-DL.DD.5.1.Atmos.H.264-playWEB[EZTVx.to].mkv
Torrent Hash: 1BE405E6591EB32DE6E5B873332B458C9F03C1F0
Filesize: 705 MB
Released: 29th Feb 2024

File Format: MKV (Matroska)
Resolution: 1280x720 px
Aspect Ratio: 16:9

Episode Description
Iwj S01E06 Tola 720p DSNP WEB-DL DD 5 1 Atmos H 264-playWEB EZTV
Wij S1E6 Screenshot


General
Unique ID: 183963105611599812163405242262927037027 (0x8A6601605210749A87488B3650E9D263)
Complete name: Iwj.S01E06.Tola.720p.DSNP.WEB-DL.DD.5.1.Atmos.H.264-playWEB.mkv
Format: Matroska
Format version: Version 4
File size: 705 MiB
Duration: 22 min 48 s
Overall bit rate mode: Variable
Overall bit rate: 4 321 kb/s
Frame rate: 24.000 FPS
Writing application: mkvmerge v82.0 ('I'm The President') 64-bit
Writing library: libebml v1.4.5 + libmatroska v1.7.1

Video
ID: 1
Format: AVC
Format/Info: Advanced Video Codec
Format profile: [email protected]
Format settings: CABAC / 4 Ref Frames
Format settings, CABAC: Yes
Format settings, Reference frames: 4 frames
Codec ID: V_MPEG4/ISO/AVC
Duration: 22 min 48 s
Bit rate mode: Variable
Bit rate: 3 295 kb/s
Maximum bit rate: 6 375 kb/s
Width: 1 280 pixels
Height: 720 pixels
Display aspect ratio: 16:9
Frame rate mode: Constant
Frame rate: 24.000 FPS
Color space: YUV
Chroma subsampling: 4:2:0
Bit depth: 8 bits
Scan type: Progressive
Bits/(Pixel*Frame): 0.149
Time code of first frame: 00:00:00:0000000000
Stream size: 538 MiB (76%)
Language: English
Default: Yes
Forced: No
Color range: Limited
Color primaries: BT.709
Transfer characteristics: BT.709
Matrix coefficients: BT.709

Audio #1
ID: 2
Format: E-AC-3 JOC
Format/Info: Enhanced AC-3 with Joint Object Coding
Commercial name: Dolby Digital Plus with Dolby Atmos
Codec ID: A_EAC3
Duration: 22 min 48 s
Bit rate mode: Constant
Bit rate: 768 kb/s
Channel(s): 6 channels
Channel layout: L R C LFE Ls Rs
Sampling rate: 48.0 kHz
Frame rate: 31.250 FPS (1536 SPF)
Compression mode: Lossy
Stream size: 125 MiB (18%)
Language: English
Service kind: Complete Main
Default: Yes
Forced: No
Complexity index: 16
Number of dynamic objects: 15
Bed channel count: 1 channel
Bed channel configuration: LFE

Audio #2
ID: 3
Format: E-AC-3
Format/Info: Enhanced AC-3
Commercial name: Dolby Digital Plus
Codec ID: A_EAC3
Duration: 22 min 48 s
Bit rate mode: Constant
Bit rate: 256 kb/s
Channel(s): 6 channels
Channel layout: L R C LFE Ls Rs
Sampling rate: 48.0 kHz
Frame rate: 31.250 FPS (1536 SPF)
Compression mode: Lossy
Stream size: 41.8 MiB (6%)
Language: Romanian
Service kind: Complete Main
Default: No
Forced: No

Text #1
ID: 4
Format: UTF-8
Codec ID: S_TEXT/UTF8
Codec ID/Info: UTF-8 Plain Text
Duration: 19 min 59 s
Bit rate: 44 b/s
Frame rate: 0.183 FPS
Count of elements: 220
Stream size: 6.56 KiB (0%)
Language: English
Default: No
Forced: No

Text #2
ID: 5
Format: UTF-8
Codec ID: S_TEXT/UTF8
Codec ID/Info: UTF-8 Plain Text
Duration: 20 min 19 s
Bit rate: 58 b/s
Frame rate: 0.258 FPS
Count of elements: 314
Stream size: 8.69 KiB (0%)
Title: SDH
Language: English
Default: No
Forced: No

Text #3
ID: 6
Format: UTF-8
Codec ID: S_TEXT/UTF8
Codec ID/Info: UTF-8 Plain Text
Duration: 20 min 34 s
Bit rate: 0 b/s
Frame rate: 0.002 FPS
Count of elements: 3
Stream size: 64.0 Bytes (0%)
Title: Forced
Language: Romanian
Default: No
Forced: Yes

Menu
00:00:11.000: en:Intro
00:00:18.500: en:Chapter 02
00:20:48.000: en:Credits
ssl  EZTV RSS EZTV Status | EZTV API | DMCA: [email protected]