eztvx.to | eztvstatus.org
Search title:  
TV Packs only
 

Branding in Seongsu S01E15 2024 1080p friDay WEB-DL H264 AAC-ADWeb EZTV

Episode Breakdown
Branding in Seongsu
Branding in Seongsu TV Show S01E15

Season: 1
Episode: 15
Air Date: 28 February, 2024
Download Links
     Torrent Download     Magnet Download
     Anonymous Download
Added 2 months ago by eztv (verified).
Tracker Statistics
Seeds: 1
Peers: 0
Stats generated @ 19:45 on 21st May 2024
Torrent Info
Torrent File: Branding.in.Seongsu.S01E15.2024.1080p.friDay.WEB-DL.H264.AAC-ADWeb[EZTVx.to].mkv
Torrent Hash: 65610A0B924451D4C592A149B786733E10888862
Filesize: 1.31 GB
Released: 28th Feb 2024

File Format: MKV (Matroska)
Resolution: 1920x1080 px
Aspect Ratio: 16:9

Branding in Seongsu S01E15 - Episode 15

Summary:
Branding in Seongsu S01E15 2024 1080p friDay WEB-DL H264 AAC-ADWeb EZTV
Branding in Seongsu S1E15 Screenshot


General
Unique ID: 284366068324027026603957291763761038806 (0xD5EEE9A127DCCBB62A28B578052E45D6)
Complete name: Branding.in.Seongsu.S01E15.2024.1080p.friDay.WEB-DL.H264.AAC-ADWeb.mkv
Format: Matroska
Format version: Version 4
File size: 1.31 GiB
Duration: 24 min 37 s
Overall bit rate: 7 587 kb/s
Frame rate: 29.970 FPS
Encoded date: 2024-02-27 17:11:52 UTC
Writing application: mkvmerge v81.0 ('Milliontown') 64-bit
Writing library: libebml v1.4.4 + libmatroska v1.7.1

Video
ID: 1
Format: AVC
Format/Info: Advanced Video Codec
Format profile: [email protected]
Format settings: CABAC / 1 Ref Frames
Format settings, CABAC: Yes
Format settings, Reference frames: 1 frame
Format settings, GOP: M=1, N=60
Codec ID: V_MPEG4/ISO/AVC
Duration: 24 min 37 s
Bit rate mode: Constant
Bit rate: 7 458 kb/s
Nominal bit rate: 8 000 kb/s
Width: 1 920 pixels
Height: 1 080 pixels
Display aspect ratio: 16:9
Frame rate mode: Constant
Frame rate: 29.970 (30000/1001) FPS
Color space: YUV
Chroma subsampling: 4:2:0
Bit depth: 8 bits
Scan type: Progressive
Bits/(Pixel*Frame): 0.120
Stream size: 1.28 GiB (98%)
Language: English
Default: Yes
Forced: No

Audio
ID: 2
Format: AAC LC
Format/Info: Advanced Audio Codec Low Complexity
Codec ID: A_AAC-2
Duration: 24 min 37 s
Bit rate: 125 kb/s
Channel(s): 2 channels
Channel layout: L R
Sampling rate: 48.0 kHz
Frame rate: 46.875 FPS (1024 SPF)
Compression mode: Lossy
Stream size: 22.1 MiB (2%)
Title: T F
Language: Korean
Default: Yes
Forced: No

Text #1
ID: 3
Format: UTF-8
Codec ID: S_TEXT/UTF8
Codec ID/Info: UTF-8 Plain Text
Duration: 24 min 31 s
Bit rate: 39 b/s
Frame rate: 0.209 FPS
Count of elements: 307
Stream size: 7.09 KiB (0%)
Title: t S+ S
Language: Chinese
Default: No
Forced: No

Text #2
ID: 4
Format: UTF-8
Codec ID: S_TEXT/UTF8
Codec ID/Info: UTF-8 Plain Text
Duration: 24 min 31 s
Bit rate: 39 b/s
Frame rate: 0.209 FPS
Count of elements: 307
Stream size: 7.09 KiB (0%)
Title: t S+ S
Language: Chinese
Default: No
Forced: No

ssl  EZTV RSS EZTV Status | EZTV API | DMCA: [email protected]