eztvx.to | eztvstatus.org
Search title:  
TV Packs only
 

Queen Of Divorce S01E08 1080p Viu WEB-DL AAC2 0 H 264-CHDWEB EZTV

Episode Breakdown
Queen of Divorce
Queen of Divorce TV Show S01E08

Season: 1
Episode: 8
Air Date: 22 February, 2024
Download Links
     Torrent Download     Magnet Download
     Anonymous Download
Added 2 months ago by eztv (verified).
Tracker Statistics
Seeds: 1
Peers: 1
Stats generated @ 07:43 on 25th May 2024
Torrent Info
Torrent File: Queen.Of.Divorce.S01E08.1080p.Viu.WEB-DL.AAC2.0.H.264-CHDWEB[EZTVx.to].mkv
Torrent Hash: 80BD3F787FC28E5CCAB448B91DEF1EF3AD16FAAB
Filesize: 958 MB
Released: 27th Feb 2024

File Format: MKV (Matroska)
Resolution: 1920x1080 px
Aspect Ratio: 16:9

Queen of Divorce S01E08 - Episode 8

Summary:
Queen Of Divorce S01E08 1080p Viu WEB-DL AAC2 0 H 264-CHDWEB EZTV
Queen of Divorce S1E8 Screenshot


General
Unique ID: 175640306865487667527395306452268339605 (0x842317B779ABD74D4D4F244A099BD195)
Complete name: Queen.Of.Divorce.S01E08.1080p.Viu.WEB-DL.AAC2.0.H.264-CHDWEB.mkv
Format: Matroska
Format version: Version 4
File size: 958 MiB
Duration: 1 h 7 min
Overall bit rate mode: Variable
Overall bit rate: 1 969 kb/s
Frame rate: 29.970 FPS
Movie name: Queen.Of.Divorce.S01E08.1080p.Viu.WEB-DL.AAC2.0.H.264-CHDWEB
Encoded date: 2024-02-24 01:40:45 UTC
Writing application: mkvmerge v73.0.0 ('25 or 6 to 4') 64-bit
Writing library: libebml v1.4.4 + libmatroska v1.7.1

Video
ID: 1
Format: AVC
Format/Info: Advanced Video Codec
Format profile: [email protected]
Format settings: CABAC / 4 Ref Frames
Format settings, CABAC: Yes
Format settings, Reference frames: 4 frames
Codec ID: V_MPEG4/ISO/AVC
Duration: 1 h 7 min
Bit rate mode: Variable
Bit rate: 1 870 kb/s
Maximum bit rate: 4 500 kb/s
Width: 1 920 pixels
Height: 1 080 pixels
Display aspect ratio: 16:9
Frame rate mode: Constant
Frame rate: 29.970 (30000/1001) FPS
Original frame rate: 29.970 (29970/1000) FPS
Color space: YUV
Chroma subsampling: 4:2:0
Bit depth: 8 bits
Scan type: Progressive
Bits/(Pixel*Frame): 0.030
Stream size: 910 MiB (95%)
Writing library: VOLO1.4.1
Default: Yes
Forced: No

Audio
ID: 2
Format: AAC LC
Format/Info: Advanced Audio Codec Low Complexity
Codec ID: A_AAC-2
Duration: 1 h 7 min
Bit rate: 96.0 kb/s
Channel(s): 2 channels
Channel layout: L R
Sampling rate: 48.0 kHz
Frame rate: 46.875 FPS (1024 SPF)
Compression mode: Lossy
Delay relative to video: -42 ms
Stream size: 46.7 MiB (5%)
Default: Yes
Forced: No

Text #1
ID: 3
Format: UTF-8
Codec ID: S_TEXT/UTF8
Codec ID/Info: UTF-8 Plain Text
Duration: 1 h 7 min
Bit rate: 58 b/s
Frame rate: 0.236 FPS
Count of elements: 956
Stream size: 28.8 KiB (0%)
Title: English
Language: English
Default: No
Forced: No

Text #2
ID: 4
Format: UTF-8
Codec ID: S_TEXT/UTF8
Codec ID/Info: UTF-8 Plain Text
Duration: 1 h 5 min
Bit rate: 49 b/s
Frame rate: 0.229 FPS
Count of elements: 901
Stream size: 23.9 KiB (0%)
Title: Simplified
Language: Chinese (Simplified)
Default: No
Forced: No

Text #3
ID: 5
Format: UTF-8
Codec ID: S_TEXT/UTF8
Codec ID/Info: UTF-8 Plain Text
Duration: 1 h 5 min
Bit rate: 49 b/s
Frame rate: 0.229 FPS
Count of elements: 901
Stream size: 23.9 KiB (0%)
Title: Traditional
Language: Chinese (Traditional)
Default: Yes
Forced: No

ssl  EZTV RSS EZTV Status | EZTV API | DMCA: [email protected]