eztvx.to | eztvstatus.org
Search title:  
TV Packs only
 

Bob Hearts Abishola S05E01 720p x264-FENiX EZTV

Episode Breakdown
Bob Hearts Abishola
Bob Hearts Abishola TV Show S05E01

Season: 5
Episode: 1
Air Date: 12 February, 2024
Download Links
     Torrent Download     Magnet Download
     Anonymous Download
Added 15 days ago by eztv (verified).
Tracker Statistics
Seeds: 1
Peers: 7
Stats generated @ 19:25 on 28th Feb 2024
Torrent Info
Torrent File: Bob.Hearts.Abishola.S05E01.720p.x264-FENiX[EZTVx.to].mkv
Torrent Hash: D9475FD72C055648F4AB83D0B8C075372FA7D370
Filesize: 231 MB
Released: 13th Feb 2024

File Format: MKV (Matroska)
Resolution: 1280x720 px
Aspect Ratio: 16:9
Alternate Releases S L
Bob Hearts Abishola S05E01 720p HDTV x264-SYNCOPY 15 7
Bob Hearts Abishola S05E01 XviD-AFG 3 3
Bob Hearts Abishola S05E01 720p HEVC x265-MeGusta 20 8
Bob Hearts Abishola S05E01 480p x264-mSD 14 2
Bob Hearts Abishola S05E01 1080p WEB H264-SuccessfulCrab 12 11
Bob Hearts Abishola S05E01 1080p HEVC x265-MeGusta 19 7
Bob Hearts Abishola S05E01 720p x265-T0PAZ 2 4

Bob Hearts Abishola S05E01 - The Dead Eyes of a Respectful Son

Summary:

When Abishola finds out Dele cancelled his plans to go to Harvard behind her back, Bob steps in to keep her from going ballistic.



Bob Hearts Abishola S05E01 720p x264-FENiX EZTV
Bob Hearts Abishola S5E1 Screenshot


General
Unique ID: 78104262581206522228783411463259495841 (0x3AC2557480BCEDF2F41D2C2BD9DD1DA1)
Complete name: Bob.Hearts.Abishola.S05E01.720p.x264-FENiX.mkv
Format: Matroska
Format version: Version 4
File size: 231 MiB
Duration: 18 min 34 s
Overall bit rate: 1 740 kb/s
Frame rate: 23.976 FPS
Movie name: Bob.Hearts.Abishola.S05E01
Writing application: Lavf60.16.100
Writing library: Lavf60.16.100
Comment: FENiX-Tue-13-Feb-2024,05:33:19,720p,22,fast,N,8976130,1920,1080,1.78
ErrorDetectionType: Per level 1

Video
ID: 1
Format: AVC
Format/Info: Advanced Video Codec
Format profile: [email protected]
Format settings: CABAC / 4 Ref Frames
Format settings, CABAC: Yes
Format settings, Reference frames: 4 frames
Codec ID: V_MPEG4/ISO/AVC
Duration: 18 min 34 s
Bit rate: 1 258 kb/s
Width: 1 280 pixels
Height: 720 pixels
Display aspect ratio: 16:9
Frame rate mode: Constant
Frame rate: 23.976 (24000/1001) FPS
Color space: YUV
Chroma subsampling: 4:2:0
Bit depth: 8 bits
Scan type: Progressive
Bits/(Pixel*Frame): 0.057
Stream size: 167 MiB (72%)
Writing library: x264 core 164
Encoding settings: cabac=1 / ref=2 / deblock=1:0:0 / analyse=0x3:0x113 / me=hex / subme=6 / psy=1 / psy_rd=1.00:0.00 / mixed_ref=1 / me_range=16 / chroma_me=1 / trellis=1 / 8x8dct=1 / cqm=0 / deadzone=21,11 / fast_pskip=1 / chroma_qp_offset=-2 / threads=22 / lookahead_threads=3 / sliced_threads=0 / nr=0 / decimate=1 / interlaced=0 / bluray_compat=0 / constrained_intra=0 / bframes=3 / b_pyramid=2 / b_adapt=1 / b_bias=0 / direct=1 / weightb=1 / open_gop=0 / weightp=1 / keyint=250 / keyint_min=23 / scenecut=40 / intra_refresh=0 / rc_lookahead=30 / rc=crf / mbtree=1 / crf=22.0 / qcomp=0.60 / qpmin=0 / qpmax=69 / qpstep=4 / ip_ratio=1.40 / aq=1:1.00
Default: Yes
Forced: No
Color range: Limited
Color primaries: BT.709
Transfer characteristics: BT.709
Matrix coefficients: BT.709

Audio
ID: 2
Format: AC-3
Format/Info: Audio Coding 3
Commercial name: Dolby Digital
Codec ID: A_AC3
Duration: 18 min 34 s
Bit rate mode: Constant
Bit rate: 448 kb/s
Channel(s): 6 channels
Channel layout: L R C LFE Ls Rs
Sampling rate: 48.0 kHz
Frame rate: 31.250 FPS (1536 SPF)
Bit depth: 32 bits
Compression mode: Lossy
Stream size: 59.5 MiB (26%)
Writing library: Lavc60.31.102 ac3
Language: English
Service kind: Complete Main
Default: Yes
Forced: No

Text
ID: 3
Format: UTF-8
Codec ID: S_TEXT/UTF8
Codec ID/Info: UTF-8 Plain Text
Duration: 18 min 19 s
Language: English
Default: No
Forced: No

ssl  EZTV RSS EZTV Status | EZTV API | DMCA: [email protected]