eztvx.to | eztvstatus.org
Search title:  
TV Packs only
 

Silent Witness S27E09 1080p x265-ELiTE EZTV

Episode Breakdown
Silent Witness
Silent Witness TV Show S27E09

Season: 27
Episode: 9
Air Date: 12 February, 2024
Download Links
     Torrent Download     Magnet Download
     Anonymous Download
Added 15 days ago by eztv (verified).
Tracker Statistics
Seeds: 8
Peers: 5
Stats generated @ 20:44 on 28th Feb 2024
Torrent Info
Torrent File: Silent.Witness.S27E09.1080p.x265-ELiTE[EZTVx.to].mkv
Torrent Hash: 666289336C306E2528976C22E47D144DF486DD30
Filesize: 630 MB
Released: 13th Feb 2024

File Format: MKV (Matroska)
Resolution: 1920x1080 px
Aspect Ratio: 16:9
Alternate Releases S L
Silent Witness S27E09 Kings Cross Part One 720p HDTV x264-ORGANiC 8 2
Silent Witness S27E09 Kings Cross Part One 480p x264-mSD 9 5
Silent Witness S27E09 Kings Cross Part One 1080p HEVC x265-MeGusta 37 14
Silent Witness S27E09 HDTV x264-XEN0N 4 4
Silent Witness S27E09 Kings Cross Part One 720p HEVC x265-MeGusta 10 3
Silent Witness S27E09 Kings Cross Part One 1080p HDTV H264-ORGANiC 20 5
Silent Witness S27E09 720p x264-FENiX 5 4

Silent Witness S27E09 - Kings Cross, Part One

Summary:

The Lyell are called to King's Cross Station Museum, where they discover the bodies of eight victims entombed below. With the knowledge that a prolific serial killer was operating in London nearly 20 years ago, Nikki and the team know this will be a case like no other.



Silent Witness S27E09 1080p x265-ELiTE EZTV
Silent Witness S27E9 Screenshot


General
Unique ID: 30427454470361307059162531928302791212 (0x16E41D546ED6D383F60EC3848211AA2C)
Complete name: Silent.Witness.S27E09.1080p.x265-ELiTE.mkv
Format: Matroska
Format version: Version 4
File size: 630 MiB
Duration: 58 min 25 s
Overall bit rate: 1 507 kb/s
Frame rate: 25.000 FPS
Movie name: Silent.Witness.S27E09
Writing application: Lavf60.16.100
Writing library: Lavf60.16.100
Comment: ELiTE-Mon-12-Feb-2024,22:42:16,1080p,22,faster,Y,2611280,1920,1080,1.78
ErrorDetectionType: Per level 1

Video
ID: 1
Format: HEVC
Format/Info: High Efficiency Video Coding
Format profile: Main 10@L4@Main
Codec ID: V_MPEGH/ISO/HEVC
Duration: 58 min 22 s
Bit rate: 1 029 kb/s
Width: 1 920 pixels
Height: 1 080 pixels
Display aspect ratio: 16:9
Frame rate mode: Constant
Frame rate: 25.000 FPS
Color space: YUV
Chroma subsampling: 4:2:0 (Type 0)
Bit depth: 10 bits
Scan type: Interlaced
Scan type, store method: Interleaved fields
Scan order: Top Field First
Bits/(Pixel*Frame): 0.020
Stream size: 430 MiB (68%)
Writing library: x265 0.0:[Linux][GCC 4.8.5][64 bit] 10bit
Encoding settings: cpuid=1111039 / frame-threads=4 / wpp / no-pmode / no-pme / no-psnr / no-ssim / log-level=2 / input-csp=1 / input-res=1920x1080 / interlace=0 / total-frames=0 / level-idc=0 / high-tier=1 / uhd-bd=0 / ref=2 / no-allow-non-conformance / no-repeat-headers / annexb / no-aud / no-hrd / info / hash=0 / no-temporal-layers / open-gop / min-keyint=25 / keyint=250 / gop-lookahead=0 / bframes=4 / b-adapt=0 / b-pyramid / bframe-bias=0 / rc-lookahead=15 / lookahead-slices=6 / scenecut=40 / hist-scenecut=0 / radl=0 / no-splice / no-intra-refresh / ctu=64 / min-cu-size=8 / no-rect / no-amp / max-tu-size=32 / tu-inter-depth=1 / tu-intra-depth=1 / limit-tu=0 / rdoq-level=0 / dynamic-rd=0.00 / no-ssim-rd / signhide / no-tskip / nr-intra=0 / nr-inter=0 / no-constrained-intra / strong-intra-smoothing / max-merge=2 / limit-refs=3 / no-limit-modes / me=1 / subme=2 / merange=57 / temporal-mvp / no-frame-dup / no-hme / weightp / no-weightb / no-analyze-src-pics / deblock=0:0 / sao / no-sao-non-deblock / rd=2 / selective-sao=4 / early-skip / rskip / fast-intra / no-tskip-fast / no-cu-lossless / no-b-intra / no-splitrd-skip / rdpenalty=0 / psy-rd=2.00 / psy-rdoq=0.00 / no-rd-refine / no-lossless / cbqpoffs=0 / crqpoffs=0 / rc=crf / crf=22.0 / qcomp=0.60 / qpstep=4 / stats-write=0 / stats-read=0 / ipratio=1.40 / pbratio=1.30 / aq-mode=2 / aq-strength=1.00 / cutree / zone-count=0 / no-strict-cbr / qg-size=32 / no-rc-grain / qpmax=69 / qpmin=0 / no-const-vbv / sar=1 / overscan=0 / videoformat=5 / range=0 / colorprim=1 / transfer=1 / colormatrix=1 / chromaloc=1 / chromaloc-top=0 / chromaloc-bottom=0 / display-window=0 / cll=0,0 / min-luma=0 / max-luma=1023 / log2-max-poc-lsb=8 / vui-timing-info / vui-hrd-info / slices=1 / no-opt-qp-pps / no-opt-ref-list-length-pps / no-multi-pass-opt-rps / scenecut-bias=0.05 / hist-threshold=0.01 / no-opt-cu-delta-qp / no-aq-motion / no-hdr10 / no-hdr10-opt / no-dhdr10-opt / no-idr-recovery-sei / analysis-reuse-level=0 / analysis-save-reuse-level=0 / analysis-load-reuse-level=0 / scale-factor=0 / refine-intra=0 / refine-inter=0 / refine-mv=1 / refine-ctu-distortion=0 / no-limit-sao / ctu-info=0 / no-lowpass-dct / refine-analysis-type=0 / copy-pic=1 / max-ausize-factor=1.0 / no-dynamic-refine / no-single-sei / no-hevc-aq / no-svt / no-field / qp-adaptation-range=1.00 / no-scenecut-aware-qpconformance-window-offsets / right=0 / bottom=0 / decoder-max-rate=0
Default: Yes
Forced: No
Color range: Limited
Color primaries: BT.709
Transfer characteristics: BT.709
Matrix coefficients: BT.709

Audio
ID: 2
Format: AC-3
Format/Info: Audio Coding 3
Commercial name: Dolby Digital
Codec ID: A_AC3
Duration: 58 min 22 s
Bit rate mode: Constant
Bit rate: 448 kb/s
Channel(s): 6 channels
Channel layout: L R C LFE Ls Rs
Sampling rate: 48.0 kHz
Frame rate: 31.250 FPS (1536 SPF)
Bit depth: 32 bits
Compression mode: Lossy
Delay relative to video: -2 s 80 ms
Stream size: 187 MiB (30%)
Writing library: Lavc60.31.102 ac3
Language: English
Service kind: Complete Main
Default: Yes
Forced: No

Text
ID: 3
Format: DVB Subtitle
Codec ID: S_DVBSUB
Codec ID/Info: Picture based subtitle format used on DVBs
Duration: 58 min 25 s
Language: English
Default: No
Forced: No

ssl  EZTV RSS EZTV Status | EZTV API | DMCA: [email protected]