eztvx.to | eztvstatus.org
Search title:  
TV Packs only
 

Silent Witness S27E09 720p x264-FENiX EZTV

Episode Breakdown
Silent Witness
Silent Witness TV Show S27E09

Season: 27
Episode: 9
Air Date: 12 February, 2024
Download Links
     Torrent Download     Magnet Download
     Anonymous Download
Added 4 months ago by eztv (verified).
Tracker Statistics
Seeds: 0
Peers: 3
Stats generated @ 09:26 on 13th Jun 2024
Torrent Info
Torrent File: Silent.Witness.S27E09.720p.x264-FENiX[EZTVx.to].mkv
Torrent Hash: 55DBB8810F35AB51EEC2387332A7AAC376A1DE9F
Filesize: 611 MB
Released: 13th Feb 2024

File Format: MKV (Matroska)
Resolution: 1280x720 px
Aspect Ratio: 16:9
Alternate Releases S L
Silent Witness S27E09 Kings Cross Part One 720p HDTV x264-ORGANiC 2 1
Silent Witness S27E09 Kings Cross Part One 480p x264-mSD 2 0
Silent Witness S27E09 Kings Cross Part One 1080p HEVC x265-MeGusta 10 1
Silent Witness S27E09 HDTV x264-XEN0N 1 0
Silent Witness S27E09 Kings Cross Part One 720p HEVC x265-MeGusta 3 0
Silent Witness S27E09 Kings Cross Part One 1080p HDTV H264-ORGANiC 9 3
Silent Witness S27E09 Kings Cross Part One XviD-AFG 1 0

Silent Witness S27E09 - Kings Cross, Part One

Summary:

The Lyell are called to King's Cross Station Museum, where they discover the bodies of eight victims entombed below. With the knowledge that a prolific serial killer was operating in London nearly 20 years ago, Nikki and the team know this will be a case like no other.



Silent Witness S27E09 720p x264-FENiX EZTV
Silent Witness S27E9 Screenshot


General
Unique ID: 58019849712015622350699847786985642179 (0x2BA63772A23BB0574F3BD8CA669758C3)
Complete name: Silent.Witness.S27E09.720p.x264-FENiX.mkv
Format: Matroska
Format version: Version 4
File size: 611 MiB
Duration: 58 min 25 s
Overall bit rate: 1 463 kb/s
Frame rate: 25.000 FPS
Movie name: Silent.Witness.S27E09
Writing application: Lavf60.16.100
Writing library: Lavf60.16.100
Comment: FENiX-Mon-12-Feb-2024,22:21:21,720p,22,fast,N,2611280,1920,1080,1.78
ErrorDetectionType: Per level 1

Video
ID: 1
Format: AVC
Format/Info: Advanced Video Codec
Format profile: [email protected]
Format settings: CABAC / 4 Ref Frames
Format settings, CABAC: Yes
Format settings, Reference frames: 4 frames
Codec ID: V_MPEG4/ISO/AVC
Duration: 58 min 22 s
Bit rate: 985 kb/s
Width: 1 280 pixels
Height: 720 pixels
Display aspect ratio: 16:9
Frame rate mode: Constant
Frame rate: 25.000 FPS
Color space: YUV
Chroma subsampling: 4:2:0
Bit depth: 8 bits
Scan type: Interlaced
Original scan type: Progressive
Scan type, store method: Interleaved fields
Scan order: Top Field First
Bits/(Pixel*Frame): 0.043
Stream size: 411 MiB (67%)
Writing library: x264 core 164
Encoding settings: cabac=1 / ref=2 / deblock=1:0:0 / analyse=0x3:0x113 / me=hex / subme=6 / psy=1 / psy_rd=1.00:0.00 / mixed_ref=1 / me_range=16 / chroma_me=1 / trellis=1 / 8x8dct=1 / cqm=0 / deadzone=21,11 / fast_pskip=1 / chroma_qp_offset=-2 / threads=22 / lookahead_threads=3 / sliced_threads=0 / nr=0 / decimate=1 / interlaced=0 / bluray_compat=0 / constrained_intra=0 / bframes=3 / b_pyramid=2 / b_adapt=1 / b_bias=0 / direct=1 / weightb=1 / open_gop=0 / weightp=1 / keyint=250 / keyint_min=25 / scenecut=40 / intra_refresh=0 / rc_lookahead=30 / rc=crf / mbtree=1 / crf=22.0 / qcomp=0.60 / qpmin=0 / qpmax=69 / qpstep=4 / ip_ratio=1.40 / aq=1:1.00
Default: Yes
Forced: No
Color range: Limited
Color primaries: BT.709
Transfer characteristics: BT.709
Matrix coefficients: BT.709

Audio
ID: 2
Format: AC-3
Format/Info: Audio Coding 3
Commercial name: Dolby Digital
Codec ID: A_AC3
Duration: 58 min 22 s
Bit rate mode: Constant
Bit rate: 448 kb/s
Channel(s): 6 channels
Channel layout: L R C LFE Ls Rs
Sampling rate: 48.0 kHz
Frame rate: 31.250 FPS (1536 SPF)
Bit depth: 32 bits
Compression mode: Lossy
Delay relative to video: -2 s 80 ms
Stream size: 187 MiB (31%)
Writing library: Lavc60.31.102 ac3
Language: English
Service kind: Complete Main
Default: Yes
Forced: No

Text
ID: 3
Format: DVB Subtitle
Codec ID: S_DVBSUB
Codec ID/Info: Picture based subtitle format used on DVBs
Duration: 58 min 25 s
Language: English
Default: No
Forced: No

ssl  EZTV RSS EZTV Status | EZTV API | DMCA: [email protected]