eztvx.to | eztvstatus.org
Search title:  
TV Packs only
 

True Detective S04E05 Part 5 1080p HMAX WEB-DL DDP5 1 x264-NTb EZTV

Episode Breakdown
True Detective
True Detective TV Show S04E05

Season: 4
Episode: 5
Air Date: 11 February, 2024
Download Links
     Torrent Download     Magnet Download
     Anonymous Download
Added 2 months ago by eztv (verified).
Tracker Statistics
Seeds: 45
Peers: 2
Stats generated @ 21:17 on 15th Apr 2024
Torrent Info
Torrent File: True.Detective.S04E05.Part.5.1080p.HMAX.WEB-DL.DDP5.1.x264-NTb[EZTVx.to].mkv
Torrent Hash: 11922BB94C60F231DDDD6FB1A156A22658597E19
Filesize: 3.92 GB
Released: 10th Feb 2024

File Format: MKV (Matroska)
Resolution: 1920x1080 px
Aspect Ratio: 16:9
Alternate Releases S L
True Detective S04E05 1080p WEB h264-ETHEL 582 34
True Detective S04E05 XviD-AFG 68 9
True Detective S04E05 Night Country Part 5 1080p AMZN WEB-DL DDP5 1 H 264-NTb 40 2
True Detective S04E05 Night Country Part 5 720p AMZN WEB-DL DDP5 1 H 264-NTb 39 8
True Detective S04E05 1080p HEVC x265-MeGusta 225 55
True Detective S04E05 Night Country Part 5 1080p WEBRip HDR10 10Bit DDP5 1 HEVC-d3g 45 9

True Detective S04E05 - Night Country: Part 5

Summary:

As Prior digs into the links between Tsalal and mining company Silver Sky, Navarro rescues Leah from a local protest that has turned violent. At a meeting with Silver Sky exec Kate McKitterick, Danvers balks when Connelly shares the official cause of the Tsalal men's deaths – and gets a warning against pursuing the case any further. Later, Hank receives a quid pro quo offer.



True Detective S04E05 Part 5 1080p HMAX WEB-DL DDP5 1 x264-NTb EZTV
True Detective S4E5 Screenshot


General
Unique ID: 301719247343621631237789247358123527712 (0xE2FD0369503F68B73EE5A1483DD24E20)
Complete name: True.Detective.S04E05.Part.5.1080p.HMAX.WEB-DL.DDP5.1.x264-NTb.mkv
Format: Matroska
Format version: Version 4
File size: 3.92 GiB
Duration: 1 h 3 min
Overall bit rate mode: Variable
Overall bit rate: 8 886 kb/s
Frame rate: 23.976 FPS
Writing application: mkvmerge v81.0 ('Milliontown') 64-bit
Writing library: libebml v1.4.4 + libmatroska v1.7.1

Video
ID: 1
Format: AVC
Format/Info: Advanced Video Codec
Format profile: High@L4
Format settings: CABAC / 4 Ref Frames
Format settings, CABAC: Yes
Format settings, Reference frames: 4 frames
Codec ID: V_MPEG4/ISO/AVC
Duration: 1 h 3 min
Bit rate mode: Variable
Bit rate: 8 250 kb/s
Maximum bit rate: 12.4 Mb/s
Width: 1 920 pixels
Height: 1 080 pixels
Display aspect ratio: 16:9
Frame rate mode: Constant
Frame rate: 23.976 (24000/1001) FPS
Color space: YUV
Chroma subsampling: 4:2:0
Bit depth: 8 bits
Scan type: Progressive
Bits/(Pixel*Frame): 0.166
Stream size: 3.63 GiB (93%)
Writing library: x264 core 157 r2965 861cec4
Encoding settings: cabac=1 / ref=4 / deblock=1:0:0 / analyse=0x3:0x113 / me=hex / subme=7 / psy=1 / psy_rd=1.00:0.00 / mixed_ref=1 / me_range=16 / chroma_me=1 / trellis=1 / 8x8dct=1 / cqm=0 / deadzone=21,11 / fast_pskip=1 / chroma_qp_offset=-2 / threads=34 / lookahead_threads=5 / sliced_threads=0 / nr=0 / decimate=1 / interlaced=0 / bluray_compat=0 / constrained_intra=0 / bframes=3 / b_pyramid=2 / b_adapt=1 / b_bias=0 / direct=1 / weightb=1 / open_gop=0 / weightp=2 / keyint=96 / keyint_min=96 / scenecut=40 / intra_refresh=0 / rc_lookahead=40 / rc=2pass / mbtree=1 / bitrate=8250 / ratetol=1.0 / qcomp=0.60 / qpmin=0 / qpmax=69 / qpstep=4 / cplxblur=20.0 / qblur=0.5 / vbv_maxrate=12375 / vbv_bufsize=6187 / nal_hrd=vbr / filler=0 / ip_ratio=1.40 / aq=1:1.00
Default: Yes
Forced: No
Color range: Limited
Color primaries: BT.709
Transfer characteristics: BT.709
Matrix coefficients: BT.709

Audio
ID: 2
Format: E-AC-3 JOC
Format/Info: Enhanced AC-3 with Joint Object Coding
Commercial name: Dolby Digital Plus with Dolby Atmos
Codec ID: A_EAC3
Duration: 1 h 3 min
Bit rate mode: Constant
Bit rate: 640 kb/s
Channel(s): 6 channels
Channel layout: L R C LFE Ls Rs
Sampling rate: 48.0 kHz
Frame rate: 31.250 FPS (1536 SPF)
Compression mode: Lossy
Stream size: 289 MiB (7%)
Language: English
Service kind: Complete Main
Default: Yes
Forced: No
Complexity index: 16
Number of dynamic objects: 15
Bed channel count: 1 channel
Bed channel configuration: LFE

Text #1
ID: 3
Format: UTF-8
Codec ID: S_TEXT/UTF8
Codec ID/Info: UTF-8 Plain Text
Duration: 59 min 36 s
Bit rate: 46 b/s
Frame rate: 0.192 FPS
Count of elements: 688
Stream size: 20.5 KiB (0%)
Language: English (US)
Default: No
Forced: No

Text #2
ID: 4
Format: UTF-8
Codec ID: S_TEXT/UTF8
Codec ID/Info: UTF-8 Plain Text
Duration: 1 h 2 min
Bit rate: 60 b/s
Frame rate: 0.249 FPS
Count of elements: 939
Stream size: 27.6 KiB (0%)
Title: SDH
Language: English (US)
Default: No
Forced: No

Text #3
ID: 5
Format: UTF-8
Codec ID: S_TEXT/UTF8
Codec ID/Info: UTF-8 Plain Text
Duration: 1 h 1 min
Bit rate: 70 b/s
Frame rate: 0.156 FPS
Count of elements: 575
Stream size: 31.6 KiB (0%)
Language: Bulgarian (BG)
Default: No
Forced: No

Text #4
ID: 6
Format: UTF-8
Codec ID: S_TEXT/UTF8
Codec ID/Info: UTF-8 Plain Text
Duration: 1 h 2 min
Bit rate: 43 b/s
Frame rate: 0.163 FPS
Count of elements: 608
Stream size: 19.8 KiB (0%)
Language: Czech (CZ)
Default: No
Forced: No

Text #5
ID: 7
Format: UTF-8
Codec ID: S_TEXT/UTF8
Codec ID/Info: UTF-8 Plain Text
Duration: 1 h 1 min
Bit rate: 42 b/s
Frame rate: 0.149 FPS
Count of elements: 546
Stream size: 19.0 KiB (0%)
Language: Danish (DK)
Default: No
Forced: No

Text #6
ID: 8
Format: UTF-8
Codec ID: S_TEXT/UTF8
Codec ID/Info: UTF-8 Plain Text
Duration: 1 h 0 min
Bit rate: 43 b/s
Frame rate: 0.199 FPS
Count of elements: 722
Stream size: 19.4 KiB (0%)
Title: Spanish (Latin America)
Language: Spanish (Latin America)
Default: No
Forced: No

Text #7
ID: 9
Format: UTF-8
Codec ID: S_TEXT/UTF8
Codec ID/Info: UTF-8 Plain Text
Duration: 1 h 0 min
Bit rate: 44 b/s
Frame rate: 0.182 FPS
Count of elements: 663
Stream size: 19.5 KiB (0%)
Title: Spanish (Spain)
Language: Spanish (ES)
Default: No
Forced: No

Text #8
ID: 10
Format: UTF-8
Codec ID: S_TEXT/UTF8
Codec ID/Info: UTF-8 Plain Text
Duration: 1 h 1 min
Bit rate: 41 b/s
Frame rate: 0.147 FPS
Count of elements: 542
Stream size: 18.7 KiB (0%)
Language: Estonian (EE)
Default: No
Forced: No

Text #9
ID: 11
Format: UTF-8
Codec ID: S_TEXT/UTF8
Codec ID/Info: UTF-8 Plain Text
Duration: 1 h 1 min
Bit rate: 47 b/s
Frame rate: 0.147 FPS
Count of elements: 540
Stream size: 21.3 KiB (0%)
Language: Finnish (FI)
Default: No
Forced: No

Text #10
ID: 12
Format: UTF-8
Codec ID: S_TEXT/UTF8
Codec ID/Info: UTF-8 Plain Text
Duration: 1 h 1 min
Bit rate: 37 b/s
Frame rate: 0.142 FPS
Count of elements: 520
Stream size: 16.8 KiB (0%)
Language: Croatian (HR)
Default: No
Forced: No

Text #11
ID: 13
Format: UTF-8
Codec ID: S_TEXT/UTF8
Codec ID/Info: UTF-8 Plain Text
Duration: 1 h 1 min
Bit rate: 42 b/s
Frame rate: 0.162 FPS
Count of elements: 595
Stream size: 19.0 KiB (0%)
Language: Hungarian (HU)
Default: No
Forced: No

Text #12
ID: 14
Format: UTF-8
Codec ID: S_TEXT/UTF8
Codec ID/Info: UTF-8 Plain Text
Duration: 1 h 1 min
Bit rate: 38 b/s
Frame rate: 0.149 FPS
Count of elements: 547
Stream size: 17.5 KiB (0%)
Language: Lithuanian (LT)
Default: No
Forced: No

Text #13
ID: 15
Format: UTF-8
Codec ID: S_TEXT/UTF8
Codec ID/Info: UTF-8 Plain Text
Duration: 1 h 1 min
Bit rate: 41 b/s
Frame rate: 0.149 FPS
Count of elements: 546
Stream size: 18.8 KiB (0%)
Language: Latvian (LV)
Default: No
Forced: No

Text #14
ID: 16
Format: UTF-8
Codec ID: S_TEXT/UTF8
Codec ID/Info: UTF-8 Plain Text
Duration: 1 h 1 min
Bit rate: 63 b/s
Frame rate: 0.142 FPS
Count of elements: 520
Stream size: 28.5 KiB (0%)
Language: Macedonian (MK)
Default: No
Forced: No

Text #15
ID: 17
Format: UTF-8
Codec ID: S_TEXT/UTF8
Codec ID/Info: UTF-8 Plain Text
Duration: 1 h 1 min
Bit rate: 42 b/s
Frame rate: 0.149 FPS
Count of elements: 546
Stream size: 18.8 KiB (0%)
Language: Dutch (NL)
Default: No
Forced: No

Text #16
ID: 18
Format: UTF-8
Codec ID: S_TEXT/UTF8
Codec ID/Info: UTF-8 Plain Text
Duration: 1 h 1 min
Bit rate: 41 b/s
Frame rate: 0.143 FPS
Count of elements: 525
Stream size: 18.8 KiB (0%)
Language: Norwegian (NO)
Default: No
Forced: No

Text #17
ID: 19
Format: UTF-8
Codec ID: S_TEXT/UTF8
Codec ID/Info: UTF-8 Plain Text
Duration: 1 h 1 min
Bit rate: 34 b/s
Frame rate: 0.144 FPS
Count of elements: 531
Stream size: 15.5 KiB (0%)
Language: Polish (PL)
Default: No
Forced: No

Text #18
ID: 20
Format: UTF-8
Codec ID: S_TEXT/UTF8
Codec ID/Info: UTF-8 Plain Text
Duration: 1 h 2 min
Bit rate: 44 b/s
Frame rate: 0.207 FPS
Count of elements: 771
Stream size: 20.3 KiB (0%)
Title: Portuguese (Brazil)
Language: Portuguese (BR)
Default: No
Forced: No

Text #19
ID: 21
Format: UTF-8
Codec ID: S_TEXT/UTF8
Codec ID/Info: UTF-8 Plain Text
Duration: 1 h 1 min
Bit rate: 42 b/s
Frame rate: 0.147 FPS
Count of elements: 541
Stream size: 19.2 KiB (0%)
Title: Portuguese (Portugal)
Language: Portuguese (PT)
Default: No
Forced: No

Text #20
ID: 22
Format: UTF-8
Codec ID: S_TEXT/UTF8
Codec ID/Info: UTF-8 Plain Text
Duration: 1 h 1 min
Bit rate: 42 b/s
Frame rate: 0.158 FPS
Count of elements: 582
Stream size: 18.9 KiB (0%)
Language: Romanian (RO)
Default: No
Forced: No

Text #21
ID: 23
Format: UTF-8
Codec ID: S_TEXT/UTF8
Codec ID/Info: UTF-8 Plain Text
Duration: 1 h 0 min
Bit rate: 41 b/s
Frame rate: 0.163 FPS
Count of elements: 593
Stream size: 18.5 KiB (0%)
Language: Slovak (SK)
Default: No
Forced: No

Text #22
ID: 24
Format: UTF-8
Codec ID: S_TEXT/UTF8
Codec ID/Info: UTF-8 Plain Text
Duration: 1 h 1 min
Bit rate: 35 b/s
Frame rate: 0.142 FPS
Count of elements: 521
Stream size: 16.1 KiB (0%)
Language: Slovenian (SI)
Default: No
Forced: No

Text #23
ID: 25
Format: UTF-8
Codec ID: S_TEXT/UTF8
Codec ID/Info: UTF-8 Plain Text
Duration: 1 h 1 min
Bit rate: 37 b/s
Frame rate: 0.142 FPS
Count of elements: 520
Stream size: 16.6 KiB (0%)
Language: Serbian-Latn-RS
Default: No
Forced: No

Text #24
ID: 26
Format: UTF-8
Codec ID: S_TEXT/UTF8
Codec ID/Info: UTF-8 Plain Text
Duration: 1 h 1 min
Bit rate: 44 b/s
Frame rate: 0.143 FPS
Count of elements: 524
Stream size: 20.1 KiB (0%)
Language: Swedish (SE)
Default: No
Forced: No

Menu
00:00:00.000: Chapter 1
00:02:25.687: Intro
00:03:31.337: Chapter 2
01:02:05.000: Credits

ssl  EZTV RSS EZTV Status | EZTV API | DMCA: [email protected]