eztvx.to | eztvstatus.org
Search title:  
TV Packs only
 

Tokyo Vice S02E01 Dont Ever Fking Miss 1080p MAX WEB-DL DDP5 1 x264-NTb EZTV

Episode Breakdown
Tokyo Vice
Tokyo Vice TV Show S02E01

Season: 2
Episode: 1
Air Date: 8 February, 2024
Download Links
     Torrent Download     Magnet Download
     Anonymous Download
Added 2 months ago by eztv (verified).
Tracker Statistics
Seeds: 24
Peers: 25
Stats generated @ 21:22 on 15th Apr 2024
Torrent Info
Torrent File: Tokyo.Vice.S02E01.Dont.Ever.Fking.Miss.1080p.MAX.WEB-DL.DDP5.1.x264-NTb[EZTVx.to].mkv
Torrent Hash: 2814187DA58B1E1E114C347A5F1B1E6C479D92C6
Filesize: 1.18 GB
Released: 8th Feb 2024

File Format: MKV (Matroska)
Resolution: 1920x1080 px
Aspect Ratio: 16:9
Alternate Releases S L
Tokyo Vice S02E01 1080p WEB H264-SuccessfulCrab 126 48
Tokyo Vice S02E01 XviD-AFG 14 13
Tokyo Vice S02E01 Dont Ever Fking Miss 1080p AMZN WEB-DL DDP5 1 H 264-NTb 35 13
Tokyo Vice S02E01 1080p HEVC x265-MeGusta 40 15
Tokyo Vice S02E01 720p x264-FENiX 9 11
Tokyo Vice S02E01 720p x265-T0PAZ 5 20
Tokyo Vice S02E01 1080p x265-ELiTE 7 12

Tokyo Vice S02E01 - Don't Ever F**king Miss

Summary:

As Jake, Katagiri and Samantha pursue the truth about Polina, Sato clings to life – but not all of Chihara-kai are hoping for his full recovery.



Tokyo Vice S02E01 Dont Ever Fking Miss 1080p MAX WEB-DL DDP5 1 x264-NTb EZTV
Tokyo Vice S2E1 Screenshot


General
Unique ID: 190444893843707836770113117139227344954 (0x8F465A35A2E293DDBD24FC25ADEF803A)
Complete name: Tokyo.Vice.S02E01.Dont.Ever.Fking.Miss.1080p.MAX.WEB-DL.DDP5.1.x264-NTb.mkv
Format: Matroska
Format version: Version 4
File size: 1.18 GiB
Duration: 57 min 28 s
Overall bit rate mode: Variable
Overall bit rate: 2 939 kb/s
Frame rate: 23.976 FPS
Writing application: mkvmerge v81.0 ('Milliontown') 64-bit
Writing library: libebml v1.4.4 + libmatroska v1.7.1

Video
ID: 1
Format: AVC
Format/Info: Advanced Video Codec
Format profile: [email protected]
Format settings: CABAC / 4 Ref Frames
Format settings, CABAC: Yes
Format settings, Reference frames: 4 frames
Codec ID: V_MPEG4/ISO/AVC
Duration: 57 min 28 s
Bit rate mode: Variable
Bit rate: 2 295 kb/s
Maximum bit rate: 10 000 kb/s
Width: 1 920 pixels
Height: 960 pixels
Display aspect ratio: 2.000
Frame rate mode: Constant
Frame rate: 23.976 (24000/1001) FPS
Color space: YUV
Chroma subsampling: 4:2:0
Bit depth: 8 bits
Scan type: Progressive
Bits/(Pixel*Frame): 0.052
Stream size: 944 MiB (78%)
Writing library: x264 core 164
Encoding settings: cabac=1 / ref=4 / deblock=1:0:0 / analyse=0x3:0x133 / me=umh / subme=10 / psy=1 / psy_rd=1.00:0.00 / mixed_ref=1 / me_range=24 / chroma_me=1 / trellis=2 / 8x8dct=1 / cqm=0 / deadzone=21,11 / fast_pskip=1 / chroma_qp_offset=-2 / threads=24 / lookahead_threads=2 / sliced_threads=0 / nr=0 / decimate=1 / interlaced=0 / bluray_compat=0 / stitchable=1 / constrained_intra=0 / bframes=3 / b_pyramid=2 / b_adapt=2 / b_bias=0 / direct=3 / weightb=1 / open_gop=0 / weightp=2 / keyint=96 / keyint_min=49 / scenecut=0 / intra_refresh=0 / rc_lookahead=96 / rc=crf / mbtree=1 / crf=20.0 / qcomp=0.60 / qpmin=0 / qpmax=69 / qpstep=4 / vbv_maxrate=10000 / vbv_bufsize=40000 / crf_max=0.0 / nal_hrd=vbr / filler=0 / ip_ratio=1.40 / aq=1:1.00
Default: Yes
Forced: No
Color range: Limited
Color primaries: BT.709
Transfer characteristics: BT.709
Matrix coefficients: BT.709

Audio
ID: 2
Format: E-AC-3 JOC
Format/Info: Enhanced AC-3 with Joint Object Coding
Commercial name: Dolby Digital Plus with Dolby Atmos
Codec ID: A_EAC3
Duration: 57 min 28 s
Bit rate mode: Constant
Bit rate: 640 kb/s
Channel(s): 6 channels
Channel layout: L R C LFE Ls Rs
Sampling rate: 48.0 kHz
Frame rate: 31.250 FPS (1536 SPF)
Compression mode: Lossy
Stream size: 263 MiB (22%)
Language: English (US)
Service kind: Complete Main
Default: Yes
Forced: No
Complexity index: 16
Number of dynamic objects: 15
Bed channel count: 1 channel
Bed channel configuration: LFE

Text #1
ID: 3
Format: UTF-8
Codec ID: S_TEXT/UTF8
Codec ID/Info: UTF-8 Plain Text
Duration: 50 min 11 s
Bit rate: 24 b/s
Frame rate: 0.103 FPS
Count of elements: 309
Stream size: 8.86 KiB (0%)
Language: English (US)
Default: No
Forced: No

Text #2
ID: 4
Format: UTF-8
Codec ID: S_TEXT/UTF8
Codec ID/Info: UTF-8 Plain Text
Duration: 56 min 24 s
Bit rate: 30 b/s
Frame rate: 0.144 FPS
Count of elements: 488
Stream size: 12.5 KiB (0%)
Title: SDH
Language: English (US)
Default: No
Forced: No

Text #3
ID: 5
Format: UTF-8
Codec ID: S_TEXT/UTF8
Codec ID/Info: UTF-8 Plain Text
Duration: 56 min 7 s
Bit rate: 71 b/s
Frame rate: 0.154 FPS
Count of elements: 519
Stream size: 29.6 KiB (0%)
Language: Bulgarian (BG)
Default: No
Forced: No

Text #4
ID: 6
Format: UTF-8
Codec ID: S_TEXT/UTF8
Codec ID/Info: UTF-8 Plain Text
Duration: 56 min 3 s
Bit rate: 39 b/s
Frame rate: 0.160 FPS
Count of elements: 538
Stream size: 16.1 KiB (0%)
Language: Czech (CZ)
Default: No
Forced: No

Text #5
ID: 7
Format: UTF-8
Codec ID: S_TEXT/UTF8
Codec ID/Info: UTF-8 Plain Text
Duration: 53 min 54 s
Bit rate: 44 b/s
Frame rate: 0.135 FPS
Count of elements: 438
Stream size: 17.4 KiB (0%)
Language: Danish (DK)
Default: No
Forced: No

Text #6
ID: 8
Format: UTF-8
Codec ID: S_TEXT/UTF8
Codec ID/Info: UTF-8 Plain Text
Duration: 54 min 42 s
Bit rate: 47 b/s
Frame rate: 0.161 FPS
Count of elements: 527
Stream size: 19.1 KiB (0%)
Title: Spanish (Latin America)
Language: Spanish (Latin America)
Default: No
Forced: No

Text #7
ID: 9
Format: UTF-8
Codec ID: S_TEXT/UTF8
Codec ID/Info: UTF-8 Plain Text
Duration: 53 min 31 s
Bit rate: 46 b/s
Frame rate: 0.166 FPS
Count of elements: 533
Stream size: 18.2 KiB (0%)
Title: Spanish (Spain)
Language: Spanish (ES)
Default: No
Forced: No

Text #8
ID: 10
Format: UTF-8
Codec ID: S_TEXT/UTF8
Codec ID/Info: UTF-8 Plain Text
Duration: 53 min 54 s
Bit rate: 43 b/s
Frame rate: 0.145 FPS
Count of elements: 468
Stream size: 17.1 KiB (0%)
Language: Finnish (FI)
Default: No
Forced: No

Text #9
ID: 11
Format: UTF-8
Codec ID: S_TEXT/UTF8
Codec ID/Info: UTF-8 Plain Text
Duration: 56 min 4 s
Bit rate: 37 b/s
Frame rate: 0.160 FPS
Count of elements: 538
Stream size: 15.5 KiB (0%)
Language: Croatian (HR)
Default: No
Forced: No

Text #10
ID: 12
Format: UTF-8
Codec ID: S_TEXT/UTF8
Codec ID/Info: UTF-8 Plain Text
Duration: 56 min 13 s
Bit rate: 42 b/s
Frame rate: 0.160 FPS
Count of elements: 541
Stream size: 17.7 KiB (0%)
Language: Hungarian (HU)
Default: No
Forced: No

Text #11
ID: 13
Format: UTF-8
Codec ID: S_TEXT/UTF8
Codec ID/Info: UTF-8 Plain Text
Duration: 56 min 4 s
Bit rate: 66 b/s
Frame rate: 0.160 FPS
Count of elements: 538
Stream size: 27.5 KiB (0%)
Language: Macedonian (MK)
Default: No
Forced: No

Text #12
ID: 14
Format: UTF-8
Codec ID: S_TEXT/UTF8
Codec ID/Info: UTF-8 Plain Text
Duration: 53 min 54 s
Bit rate: 42 b/s
Frame rate: 0.141 FPS
Count of elements: 455
Stream size: 16.7 KiB (0%)
Language: Dutch (NL)
Default: No
Forced: No

Text #13
ID: 15
Format: UTF-8
Codec ID: S_TEXT/UTF8
Codec ID/Info: UTF-8 Plain Text
Duration: 53 min 54 s
Bit rate: 41 b/s
Frame rate: 0.134 FPS
Count of elements: 435
Stream size: 16.5 KiB (0%)
Language: Norwegian (NO)
Default: No
Forced: No

Text #14
ID: 16
Format: UTF-8
Codec ID: S_TEXT/UTF8
Codec ID/Info: UTF-8 Plain Text
Duration: 57 min 4 s
Bit rate: 34 b/s
Frame rate: 0.132 FPS
Count of elements: 452
Stream size: 14.5 KiB (0%)
Language: Polish (PL)
Default: No
Forced: No

Text #15
ID: 17
Format: UTF-8
Codec ID: S_TEXT/UTF8
Codec ID/Info: UTF-8 Plain Text
Duration: 54 min 42 s
Bit rate: 49 b/s
Frame rate: 0.161 FPS
Count of elements: 527
Stream size: 19.7 KiB (0%)
Title: Portuguese (Brazil)
Language: Portuguese (BR)
Default: No
Forced: No

Text #16
ID: 18
Format: UTF-8
Codec ID: S_TEXT/UTF8
Codec ID/Info: UTF-8 Plain Text
Duration: 53 min 54 s
Bit rate: 43 b/s
Frame rate: 0.144 FPS
Count of elements: 466
Stream size: 17.4 KiB (0%)
Title: Portuguese (Portugal)
Language: Portuguese (PT)
Default: No
Forced: No

Text #17
ID: 19
Format: UTF-8
Codec ID: S_TEXT/UTF8
Codec ID/Info: UTF-8 Plain Text
Duration: 55 min 59 s
Bit rate: 40 b/s
Frame rate: 0.160 FPS
Count of elements: 536
Stream size: 16.7 KiB (0%)
Language: Romanian (RO)
Default: No
Forced: No

Text #18
ID: 20
Format: UTF-8
Codec ID: S_TEXT/UTF8
Codec ID/Info: UTF-8 Plain Text
Duration: 56 min 9 s
Bit rate: 41 b/s
Frame rate: 0.165 FPS
Count of elements: 555
Stream size: 17.2 KiB (0%)
Language: Slovak (SK)
Default: No
Forced: No

Text #19
ID: 21
Format: UTF-8
Codec ID: S_TEXT/UTF8
Codec ID/Info: UTF-8 Plain Text
Duration: 56 min 4 s
Bit rate: 35 b/s
Frame rate: 0.160 FPS
Count of elements: 538
Stream size: 14.7 KiB (0%)
Language: Slovenian (SI)
Default: No
Forced: No

Text #20
ID: 22
Format: UTF-8
Codec ID: S_TEXT/UTF8
Codec ID/Info: UTF-8 Plain Text
Duration: 56 min 4 s
Bit rate: 37 b/s
Frame rate: 0.160 FPS
Count of elements: 538
Stream size: 15.5 KiB (0%)
Language: Serbian-Latn-RS
Default: No
Forced: No

Text #21
ID: 23
Format: UTF-8
Codec ID: S_TEXT/UTF8
Codec ID/Info: UTF-8 Plain Text
Duration: 53 min 54 s
Bit rate: 43 b/s
Frame rate: 0.134 FPS
Count of elements: 435
Stream size: 17.0 KiB (0%)
Language: Swedish (SE)
Default: No
Forced: No

Menu
00:00:00.000: en:Intro / en:Chapter 2
00:01:09.195: en:Chapter 1
00:13:10.998: en:Chapter 3
00:25:50.924: en:Chapter 4
00:34:45.875: en:Chapter 5
00:42:16.200: en:Chapter 6
00:56:28.635: en:Credits
00:57:20.645: en:Chapter 7

ssl  EZTV RSS EZTV Status | EZTV API | DMCA: [email protected]