eztvx.to | eztvstatus.org
Search title:  
TV Packs only
 

Big Little Crimes S01E10 1080p iP WEB-DL AAC2 0 H 264-NTb EZTV

Episode Breakdown
Big Little Crimes
Big Little Crimes TV Show S01E10

Season: 1
Episode: 10
Air Date: 13 January, 2023
Download Links
     Torrent Download     Magnet Download
     Anonymous Download
Added 7 months ago by eztv (verified).
Tracker Statistics
Seeds: 0
Peers: 1
Stats generated @ 12:06 on 21st Jul 2024
Torrent Info
Torrent File: Big.Little.Crimes.S01E10.1080p.iP.WEB-DL.AAC2.0.H.264-NTb[EZTVx.to].mkv
Torrent Hash: 4C4DF5B46A89E7682A93295B831BB500316B89D7
Filesize: 2.51 GB
Released: 5th Dec 2023

File Format: MKV (Matroska)
Resolution: 1920x1080 px
Aspect Ratio: 16:9

Big Little Crimes S01E10 - Episode 10

Summary:

Big Little Crimes tells the remarkable stories of ordinary beat coppers who stumble upon a key piece of evidence - a haul of stolen goods or a suspect on the run - and bring a major criminal to justice.

A series of seemingly unconnected burglaries helps police to crack a county lines drug-dealing conspiracy. A single consumer complaint leads to police bringing down a national SMS fraud affecting thousands, and a cunning con-woman is discovered living a life of luxury with stolen money.



Big Little Crimes S01E10 1080p iP WEB-DL AAC2 0 H 264-NTb EZTV
Big Little Crimes S1E10 Screenshot


General
Unique ID: 229011384983519449489920585869657753174 (0xAC49FD076C9CDCA571F44AED05D5C656)
Complete name: Big.Little.Crimes.S01E10.1080p.iP.WEB-DL.AAC2.0.H.264-NTb.mkv
Format: Matroska
Format version: Version 4
File size: 2.51 GiB
Duration: 43 min 45 s
Overall bit rate mode: Variable
Overall bit rate: 8 206 kb/s
Frame rate: 50.000 FPS
Writing application: mkvmerge v67.0.0 ('Under Stars') 64-bit
Writing library: libebml v1.4.2 + libmatroska v1.6.4

Video
ID: 1
Format: AVC
Format/Info: Advanced Video Codec
Format profile: [email protected]
Format settings: CABAC / 4 Ref Frames
Format settings, CABAC: Yes
Format settings, Reference frames: 4 frames
Codec ID: V_MPEG4/ISO/AVC
Duration: 43 min 45 s
Bit rate mode: Variable
Bit rate: 8 073 kb/s
Maximum bit rate: 12.0 Mb/s
Width: 1 920 pixels
Height: 1 080 pixels
Display aspect ratio: 16:9
Frame rate mode: Constant
Frame rate: 50.000 FPS
Color space: YUV
Chroma subsampling: 4:2:0
Bit depth: 8 bits
Scan type: Progressive
Bits/(Pixel*Frame): 0.078
Stream size: 2.47 GiB (98%)
Default: Yes
Forced: No
Color range: Limited
Color primaries: BT.709
Transfer characteristics: BT.709
Matrix coefficients: BT.709

Audio
ID: 2
Format: AAC LC
Format/Info: Advanced Audio Codec Low Complexity
Codec ID: A_AAC-2
Duration: 43 min 45 s
Bit rate: 128 kb/s
Channel(s): 2 channels
Channel layout: L R
Sampling rate: 48.0 kHz
Frame rate: 46.875 FPS (1024 SPF)
Compression mode: Lossy
Stream size: 40.1 MiB (2%)
Title: English
Language: English
Default: Yes
Forced: No

Text
ID: 3
Format: UTF-8
Codec ID: S_TEXT/UTF8
Codec ID/Info: UTF-8 Plain Text
Duration: 43 min 9 s
Bit rate: 104 b/s
Frame rate: 0.285 FPS
Count of elements: 739
Stream size: 33.0 KiB (0%)
Title: English
Language: English
Default: No
Forced: No
ssl  EZTV RSS EZTV Status | EZTV API | DMCA: [email protected]