eztvx.to | eztvstatus.org
Search title:  
TV Packs only
 

Big Little Crimes S01E06 1080p iP WEB-DL AAC2 0 H 264-NTb EZTV

Episode Breakdown
Big Little Crimes
Big Little Crimes TV Show S01E06

Season: 1
Episode: 6
Air Date: 9 January, 2023
Download Links
     Torrent Download     Magnet Download
     Anonymous Download
Added 7 months ago by eztv (verified).
Tracker Statistics
Seeds: 0
Peers: 1
Stats generated @ 12:50 on 21st Jul 2024
Torrent Info
Torrent File: Big.Little.Crimes.S01E06.1080p.iP.WEB-DL.AAC2.0.H.264-NTb[EZTVx.to].mkv
Torrent Hash: 8A7F6652DC10D32FC70AA996DDF015850173ED98
Filesize: 2.25 GB
Released: 5th Dec 2023

File Format: MKV (Matroska)
Resolution: 1920x1080 px
Aspect Ratio: 16:9

Big Little Crimes S01E06 - Episode 6

Summary:

Big Little Crimes tells the remarkable stories of ordinary beat coppers who stumble upon a key piece of evidence - a haul of stolen goods or a suspect on the run - and bring a major criminal to justice.

An everyday burglary proves to hold the solution to a series of dramatic ram-raids. A report of a minor theft leads to a case of kidnapping and false imprisonment, and a spike in consumer complaints leads to the conviction of some prolific fraudsters.



Big Little Crimes S01E06 1080p iP WEB-DL AAC2 0 H 264-NTb EZTV
Big Little Crimes S1E6 Screenshot


General
Unique ID: 122857278625265171634975402498059796967 (0x5C6D73807814D6A6432E04A9456A01E7)
Complete name: Big.Little.Crimes.S01E06.1080p.iP.WEB-DL.AAC2.0.H.264-NTb.mkv
Format: Matroska
Format version: Version 4
File size: 2.25 GiB
Duration: 44 min 3 s
Overall bit rate mode: Variable
Overall bit rate: 7 325 kb/s
Frame rate: 50.000 FPS
Writing application: mkvmerge v67.0.0 ('Under Stars') 64-bit
Writing library: libebml v1.4.2 + libmatroska v1.6.4

Video
ID: 1
Format: AVC
Format/Info: Advanced Video Codec
Format profile: [email protected]
Format settings: CABAC / 4 Ref Frames
Format settings, CABAC: Yes
Format settings, Reference frames: 4 frames
Codec ID: V_MPEG4/ISO/AVC
Duration: 44 min 3 s
Bit rate mode: Variable
Bit rate: 7 193 kb/s
Maximum bit rate: 12.0 Mb/s
Width: 1 920 pixels
Height: 1 080 pixels
Display aspect ratio: 16:9
Frame rate mode: Constant
Frame rate: 50.000 FPS
Color space: YUV
Chroma subsampling: 4:2:0
Bit depth: 8 bits
Scan type: Progressive
Bits/(Pixel*Frame): 0.069
Stream size: 2.21 GiB (98%)
Default: Yes
Forced: No
Color range: Limited
Color primaries: BT.709
Transfer characteristics: BT.709
Matrix coefficients: BT.709

Audio
ID: 2
Format: AAC LC
Format/Info: Advanced Audio Codec Low Complexity
Codec ID: A_AAC-2
Duration: 44 min 3 s
Bit rate: 128 kb/s
Channel(s): 2 channels
Channel layout: L R
Sampling rate: 48.0 kHz
Frame rate: 46.875 FPS (1024 SPF)
Compression mode: Lossy
Stream size: 40.3 MiB (2%)
Title: English
Language: English
Default: Yes
Forced: No

Text
ID: 3
Format: UTF-8
Codec ID: S_TEXT/UTF8
Codec ID/Info: UTF-8 Plain Text
Duration: 43 min 31 s
Bit rate: 100 b/s
Frame rate: 0.249 FPS
Count of elements: 651
Stream size: 31.9 KiB (0%)
Title: English
Language: English
Default: No
Forced: No
ssl  EZTV RSS EZTV Status | EZTV API | DMCA: [email protected]