eztvx.to | eztvstatus.org
Search title:  
TV Packs only
 

Big Little Crimes S01E03 1080p iP WEB-DL AAC2 0 H 264-NTb EZTV

Episode Breakdown
Big Little Crimes
Big Little Crimes TV Show S01E03

Season: 1
Episode: 3
Air Date: 4 January, 2023
Download Links
     Torrent Download     Magnet Download
     Anonymous Download
Added 7 months ago by eztv (verified).
Tracker Statistics
Seeds: 1
Peers: 1
Stats generated @ 13:11 on 21st Jul 2024
Torrent Info
Torrent File: Big.Little.Crimes.S01E03.1080p.iP.WEB-DL.AAC2.0.H.264-NTb[EZTVx.to].mkv
Torrent Hash: 09AE3DFD0982C8AF06EA9856BD00B906A70CA575
Filesize: 2.59 GB
Released: 5th Dec 2023

File Format: MKV (Matroska)
Resolution: 1920x1080 px
Aspect Ratio: 16:9
Alternate Releases S L
Big Little Crimes S01E03 1080p WEBRip x264-CBFM 0 1
Big Little Crimes S01E03 XviD-AFG 0 0

Big Little Crimes S01E03 - Episode 3

Summary:

A stop-and-search leads to the arrest of a serial killer, a copper's decision ends in an armed stand-off, and a road traffic collision cracks open a massive fraud case.



Big Little Crimes S01E03 1080p iP WEB-DL AAC2 0 H 264-NTb EZTV
Big Little Crimes S1E3 Screenshot


General
Unique ID: 131941923897209107752583965242508897418 (0x634317185ABE63E65AE972AB248AEC8A)
Complete name: Big.Little.Crimes.S01E03.1080p.iP.WEB-DL.AAC2.0.H.264-NTb.mkv
Format: Matroska
Format version: Version 4
File size: 2.59 GiB
Duration: 44 min 1 s
Overall bit rate mode: Variable
Overall bit rate: 8 412 kb/s
Frame rate: 50.000 FPS
Writing application: mkvmerge v67.0.0 ('Under Stars') 64-bit
Writing library: libebml v1.4.2 + libmatroska v1.6.4

Video
ID: 1
Format: AVC
Format/Info: Advanced Video Codec
Format profile: [email protected]
Format settings: CABAC / 4 Ref Frames
Format settings, CABAC: Yes
Format settings, Reference frames: 4 frames
Codec ID: V_MPEG4/ISO/AVC
Duration: 44 min 1 s
Bit rate mode: Variable
Bit rate: 8 280 kb/s
Maximum bit rate: 12.0 Mb/s
Width: 1 920 pixels
Height: 1 080 pixels
Display aspect ratio: 16:9
Frame rate mode: Constant
Frame rate: 50.000 FPS
Color space: YUV
Chroma subsampling: 4:2:0
Bit depth: 8 bits
Scan type: Progressive
Bits/(Pixel*Frame): 0.080
Stream size: 2.55 GiB (98%)
Default: Yes
Forced: No
Color range: Limited
Color primaries: BT.709
Transfer characteristics: BT.709
Matrix coefficients: BT.709

Audio
ID: 2
Format: AAC LC
Format/Info: Advanced Audio Codec Low Complexity
Codec ID: A_AAC-2
Duration: 44 min 1 s
Bit rate: 128 kb/s
Channel(s): 2 channels
Channel layout: L R
Sampling rate: 48.0 kHz
Frame rate: 46.875 FPS (1024 SPF)
Compression mode: Lossy
Stream size: 40.3 MiB (2%)
Title: English
Language: English
Default: Yes
Forced: No

Text
ID: 3
Format: UTF-8
Codec ID: S_TEXT/UTF8
Codec ID/Info: UTF-8 Plain Text
Duration: 43 min 27 s
Bit rate: 101 b/s
Frame rate: 0.289 FPS
Count of elements: 753
Stream size: 32.4 KiB (0%)
Title: English
Language: English
Default: No
Forced: No
ssl  EZTV RSS EZTV Status | EZTV API | DMCA: [email protected]