eztvx.to | eztvstatus.org
Search title:  
TV Packs only
 

Monarch Legacy of Monsters S01E02 Departure 1080p ATVP WEB-DL DDP5 1 H 264-NTb EZTV

Episode Breakdown
Monarch: Legacy of Monsters
Monarch: Legacy of Monsters TV Show S01E02

Season: 1
Episode: 2
Air Date: 17 November, 2023
Download Links
     Torrent Download     Magnet Download
     Anonymous Download
Added 15 days ago by eztv (verified).
Tracker Statistics
Seeds: 137
Peers: 22
Stats generated @ 15:32 on 3rd Dec 2023
Torrent Info
Torrent File: Monarch.Legacy.of.Monsters.S01E02.Departure.1080p.ATVP.WEB-DL.DDP5.1.H.264-NTb[eztv.re].mkv
Torrent Hash: 643BA3F92E69D1D2247190B790556299B4EFB7A9
Filesize: 3.50 GB
Released: 17th Nov 2023

File Format: MKV (Matroska)
Resolution: 1920x1080 px
Aspect Ratio: 16:9
Alternate Releases S L
Monarch Legacy of Monsters S01E02 1080p WEB H264-GloriousMongoose 331 65
Monarch Legacy of Monsters S01E02 480p x264-mSD 48 26
Monarch Legacy of Monsters S01E02 720p WEB h264-ETHEL 105 42
Monarch Legacy of Monsters S01E02 MULTI 1080p WEB H264-ANESSE 25 25
Monarch Legacy of Monsters S01E02 720p HEVC x265-MeGusta 93 23
Monarch Legacy of Monsters S01E02 1080p x265-ELiTE 81 19
Monarch Legacy of Monsters S01E02 720p x264-FENiX 19 12

Monarch: Legacy of Monsters S01E02 - Departure

Summary:

Monarch closes in on Cate, Kentaro, and May as they try to track down a key individual. Keiko, Lee, and Billy stumble on a major find.



Monarch Legacy of Monsters S01E02 Departure 1080p ATVP WEB-DL DDP5 1 H 264-NTb EZTV
Monarch: Legacy of Monsters S1E2 Screenshot


General
Unique ID: 168022280028567664219532440156615172472 (0x7E67E9FEBAEAF2E615B2F6F4F7BF6178)
Complete name: Monarch.Legacy.of.Monsters.S01E02.Departure.1080p.ATVP.WEB-DL.DDP5.1.H.264-NTb.mkv
Format: Matroska
Format version: Version 4
File size: 3.50 GiB
Duration: 46 min 18 s
Overall bit rate: 10.8 Mb/s
Frame rate: 23.976 FPS
Writing application: mkvmerge v78.0 ('Running') 64-bit
Writing library: libebml v1.4.4 + libmatroska v1.7.1

Video
ID: 1
Format: AVC
Format/Info: Advanced Video Codec
Format profile: High@L4
Format settings: CABAC / 4 Ref Frames
Format settings, CABAC: Yes
Format settings, Reference frames: 4 frames
Codec ID: V_MPEG4/ISO/AVC
Duration: 46 min 18 s
Bit rate: 10.0 Mb/s
Width: 1 920 pixels
Height: 1 080 pixels
Display aspect ratio: 16:9
Frame rate mode: Constant
Frame rate: 23.976 (24000/1001) FPS
Color space: YUV
Chroma subsampling: 4:2:0
Bit depth: 8 bits
Scan type: Progressive
Bits/(Pixel*Frame): 0.202
Stream size: 3.25 GiB (93%)
Default: Yes
Forced: No
Color range: Limited
Color primaries: BT.709
Transfer characteristics: BT.709
Matrix coefficients: BT.709

Audio
ID: 2
Format: E-AC-3 JOC
Format/Info: Enhanced AC-3 with Joint Object Coding
Commercial name: Dolby Digital Plus with Dolby Atmos
Codec ID: A_EAC3
Duration: 46 min 18 s
Bit rate mode: Constant
Bit rate: 768 kb/s
Channel(s): 6 channels
Channel layout: L R C LFE Ls Rs
Sampling rate: 48.0 kHz
Frame rate: 31.250 FPS (1536 SPF)
Compression mode: Lossy
Stream size: 254 MiB (7%)
Language: English
Service kind: Complete Main
Default: Yes
Forced: No
Complexity index: 16
Number of dynamic objects: 15
Bed channel count: 1 channel
Bed channel configuration: LFE

Text #1
ID: 3
Format: UTF-8
Codec ID: S_TEXT/UTF8
Codec ID/Info: UTF-8 Plain Text
Duration: 21 min 16 s
Bit rate: 13 b/s
Frame rate: 0.073 FPS
Count of elements: 93
Stream size: 2.12 KiB (0%)
Title: Forced
Language: English
Default: Yes
Forced: Yes

Text #2
ID: 4
Format: UTF-8
Codec ID: S_TEXT/UTF8
Codec ID/Info: UTF-8 Plain Text
Duration: 44 min 44 s
Bit rate: 47 b/s
Frame rate: 0.203 FPS
Count of elements: 546
Stream size: 15.7 KiB (0%)
Language: English
Default: No
Forced: No

Text #3
ID: 5
Format: UTF-8
Codec ID: S_TEXT/UTF8
Codec ID/Info: UTF-8 Plain Text
Duration: 45 min 1 s
Bit rate: 59 b/s
Frame rate: 0.245 FPS
Count of elements: 661
Stream size: 19.5 KiB (0%)
Title: SDH
Language: English
Default: No
Forced: No

Text #4
ID: 6
Format: UTF-8
Codec ID: S_TEXT/UTF8
Codec ID/Info: UTF-8 Plain Text
Duration: 46 min 3 s
Bit rate: 66 b/s
Frame rate: 0.202 FPS
Count of elements: 559
Stream size: 22.3 KiB (0%)
Language: Arabic
Default: No
Forced: No

Text #5
ID: 7
Format: UTF-8
Codec ID: S_TEXT/UTF8
Codec ID/Info: UTF-8 Plain Text
Duration: 46 min 3 s
Bit rate: 62 b/s
Frame rate: 0.154 FPS
Count of elements: 426
Stream size: 21.1 KiB (0%)
Language: Bulgarian
Default: No
Forced: No

Text #6
ID: 8
Format: UTF-8
Codec ID: S_TEXT/UTF8
Codec ID/Info: UTF-8 Plain Text
Duration: 46 min 3 s
Bit rate: 43 b/s
Frame rate: 0.203 FPS
Count of elements: 562
Stream size: 14.7 KiB (0%)
Title: Chinese (Simplified)
Language: Chinese (Simplified)
Default: No
Forced: No

Text #7
ID: 9
Format: UTF-8
Codec ID: S_TEXT/UTF8
Codec ID/Info: UTF-8 Plain Text
Duration: 46 min 3 s
Bit rate: 42 b/s
Frame rate: 0.203 FPS
Count of elements: 562
Stream size: 14.5 KiB (0%)
Title: Chinese (Traditional)
Language: Chinese (Traditional)
Default: No
Forced: No

Text #8
ID: 10
Format: UTF-8
Codec ID: S_TEXT/UTF8
Codec ID/Info: UTF-8 Plain Text
Duration: 46 min 3 s
Bit rate: 40 b/s
Frame rate: 0.183 FPS
Count of elements: 506
Stream size: 13.7 KiB (0%)
Language: Czech
Default: No
Forced: No

Text #9
ID: 11
Format: UTF-8
Codec ID: S_TEXT/UTF8
Codec ID/Info: UTF-8 Plain Text
Duration: 46 min 3 s
Bit rate: 44 b/s
Frame rate: 0.176 FPS
Count of elements: 486
Stream size: 15.0 KiB (0%)
Language: Danish
Default: No
Forced: No

Text #10
ID: 12
Format: UTF-8
Codec ID: S_TEXT/UTF8
Codec ID/Info: UTF-8 Plain Text
Duration: 46 min 5 s
Bit rate: 43 b/s
Frame rate: 0.173 FPS
Count of elements: 477
Stream size: 14.7 KiB (0%)
Language: German
Default: No
Forced: No

Text #11
ID: 13
Format: UTF-8
Codec ID: S_TEXT/UTF8
Codec ID/Info: UTF-8 Plain Text
Duration: 46 min 3 s
Bit rate: 74 b/s
Frame rate: 0.187 FPS
Count of elements: 517
Stream size: 25.2 KiB (0%)
Language: Greek
Default: No
Forced: No

Text #12
ID: 14
Format: UTF-8
Codec ID: S_TEXT/UTF8
Codec ID/Info: UTF-8 Plain Text
Duration: 46 min 3 s
Bit rate: 45 b/s
Frame rate: 0.198 FPS
Count of elements: 548
Stream size: 15.5 KiB (0%)
Title: Spanish (Latin America)
Language: Spanish (Latin America)
Default: No
Forced: No

Text #13
ID: 15
Format: UTF-8
Codec ID: S_TEXT/UTF8
Codec ID/Info: UTF-8 Plain Text
Duration: 46 min 3 s
Bit rate: 46 b/s
Frame rate: 0.200 FPS
Count of elements: 554
Stream size: 15.5 KiB (0%)
Title: Spanish (Spain)
Language: Spanish (ES)
Default: No
Forced: No

Text #14
ID: 16
Format: UTF-8
Codec ID: S_TEXT/UTF8
Codec ID/Info: UTF-8 Plain Text
Duration: 46 min 3 s
Bit rate: 42 b/s
Frame rate: 0.195 FPS
Count of elements: 540
Stream size: 14.2 KiB (0%)
Language: Estonian
Default: No
Forced: No

Text #15
ID: 17
Format: UTF-8
Codec ID: S_TEXT/UTF8
Codec ID/Info: UTF-8 Plain Text
Duration: 46 min 3 s
Bit rate: 45 b/s
Frame rate: 0.198 FPS
Count of elements: 548
Stream size: 15.2 KiB (0%)
Language: Finnish
Default: No
Forced: No

Text #16
ID: 18
Format: UTF-8
Codec ID: S_TEXT/UTF8
Codec ID/Info: UTF-8 Plain Text
Duration: 45 min 22 s
Bit rate: 42 b/s
Frame rate: 0.179 FPS
Count of elements: 488
Stream size: 14.0 KiB (0%)
Title: French (Canada)
Language: French (CA)
Default: No
Forced: No

Text #17
ID: 19
Format: UTF-8
Codec ID: S_TEXT/UTF8
Codec ID/Info: UTF-8 Plain Text
Duration: 45 min 22 s
Bit rate: 42 b/s
Frame rate: 0.179 FPS
Count of elements: 487
Stream size: 14.0 KiB (0%)
Title: French (France)
Language: French (FR)
Default: No
Forced: No

Text #18
ID: 20
Format: UTF-8
Codec ID: S_TEXT/UTF8
Codec ID/Info: UTF-8 Plain Text
Duration: 46 min 3 s
Bit rate: 64 b/s
Frame rate: 0.203 FPS
Count of elements: 561
Stream size: 21.8 KiB (0%)
Language: Hebrew
Default: No
Forced: No

Text #19
ID: 21
Format: UTF-8
Codec ID: S_TEXT/UTF8
Codec ID/Info: UTF-8 Plain Text
Duration: 46 min 3 s
Bit rate: 131 b/s
Frame rate: 0.203 FPS
Count of elements: 562
Stream size: 44.3 KiB (0%)
Language: Hindi
Default: No
Forced: No

Text #20
ID: 22
Format: UTF-8
Codec ID: S_TEXT/UTF8
Codec ID/Info: UTF-8 Plain Text
Duration: 46 min 3 s
Bit rate: 44 b/s
Frame rate: 0.194 FPS
Count of elements: 537
Stream size: 15.0 KiB (0%)
Language: Hungarian
Default: No
Forced: No

Text #21
ID: 23
Format: UTF-8
Codec ID: S_TEXT/UTF8
Codec ID/Info: UTF-8 Plain Text
Duration: 46 min 3 s
Bit rate: 42 b/s
Frame rate: 0.199 FPS
Count of elements: 551
Stream size: 14.3 KiB (0%)
Language: Indonesian
Default: No
Forced: No

Text #22
ID: 24
Format: UTF-8
Codec ID: S_TEXT/UTF8
Codec ID/Info: UTF-8 Plain Text
Duration: 46 min 5 s
Bit rate: 46 b/s
Frame rate: 0.202 FPS
Count of elements: 559
Stream size: 15.6 KiB (0%)
Language: Italian
Default: No
Forced: No

Text #23
ID: 25
Format: UTF-8
Codec ID: S_TEXT/UTF8
Codec ID/Info: UTF-8 Plain Text
Duration: 46 min 12 s
Bit rate: 39 b/s
Frame rate: 0.189 FPS
Count of elements: 525
Stream size: 13.4 KiB (0%)
Language: Japanese
Default: No
Forced: No

Text #24
ID: 26
Format: UTF-8
Codec ID: S_TEXT/UTF8
Codec ID/Info: UTF-8 Plain Text
Duration: 46 min 3 s
Bit rate: 52 b/s
Frame rate: 0.204 FPS
Count of elements: 564
Stream size: 17.6 KiB (0%)
Language: Korean
Default: No
Forced: No

Text #25
ID: 27
Format: UTF-8
Codec ID: S_TEXT/UTF8
Codec ID/Info: UTF-8 Plain Text
Duration: 46 min 3 s
Bit rate: 46 b/s
Frame rate: 0.200 FPS
Count of elements: 552
Stream size: 15.6 KiB (0%)
Language: Lithuanian
Default: No
Forced: No

Text #26
ID: 28
Format: UTF-8
Codec ID: S_TEXT/UTF8
Codec ID/Info: UTF-8 Plain Text
Duration: 46 min 3 s
Bit rate: 45 b/s
Frame rate: 0.186 FPS
Count of elements: 514
Stream size: 15.2 KiB (0%)
Language: Latvian
Default: No
Forced: No

Text #27
ID: 29
Format: UTF-8
Codec ID: S_TEXT/UTF8
Codec ID/Info: UTF-8 Plain Text
Duration: 46 min 3 s
Bit rate: 46 b/s
Frame rate: 0.201 FPS
Count of elements: 555
Stream size: 15.8 KiB (0%)
Language: Malay
Default: No
Forced: No

Text #28
ID: 30
Format: UTF-8
Codec ID: S_TEXT/UTF8
Codec ID/Info: UTF-8 Plain Text
Duration: 46 min 3 s
Bit rate: 38 b/s
Frame rate: 0.164 FPS
Count of elements: 453
Stream size: 13.0 KiB (0%)
Language: Dutch
Default: No
Forced: No

Text #29
ID: 31
Format: UTF-8
Codec ID: S_TEXT/UTF8
Codec ID/Info: UTF-8 Plain Text
Duration: 46 min 3 s
Bit rate: 42 b/s
Frame rate: 0.174 FPS
Count of elements: 481
Stream size: 14.2 KiB (0%)
Language: Norwegian
Default: No
Forced: No

Text #30
ID: 32
Format: UTF-8
Codec ID: S_TEXT/UTF8
Codec ID/Info: UTF-8 Plain Text
Duration: 46 min 3 s
Bit rate: 42 b/s
Frame rate: 0.199 FPS
Count of elements: 549
Stream size: 14.5 KiB (0%)
Language: Polish
Default: No
Forced: No

Text #31
ID: 33
Format: UTF-8
Codec ID: S_TEXT/UTF8
Codec ID/Info: UTF-8 Plain Text
Duration: 46 min 3 s
Bit rate: 44 b/s
Frame rate: 0.199 FPS
Count of elements: 549
Stream size: 14.9 KiB (0%)
Title: Portuguese
Language: Portuguese
Default: No
Forced: No

Text #32
ID: 34
Format: UTF-8
Codec ID: S_TEXT/UTF8
Codec ID/Info: UTF-8 Plain Text
Duration: 46 min 3 s
Bit rate: 43 b/s
Frame rate: 0.187 FPS
Count of elements: 517
Stream size: 14.8 KiB (0%)
Title: Portuguese (Brazil)
Language: Portuguese (BR)
Default: No
Forced: No

Text #33
ID: 35
Format: UTF-8
Codec ID: S_TEXT/UTF8
Codec ID/Info: UTF-8 Plain Text
Duration: 46 min 3 s
Bit rate: 66 b/s
Frame rate: 0.198 FPS
Count of elements: 548
Stream size: 22.3 KiB (0%)
Language: Russian
Default: No
Forced: No

Text #34
ID: 36
Format: UTF-8
Codec ID: S_TEXT/UTF8
Codec ID/Info: UTF-8 Plain Text
Duration: 46 min 3 s
Bit rate: 44 b/s
Frame rate: 0.201 FPS
Count of elements: 556
Stream size: 14.9 KiB (0%)
Language: Slovak
Default: No
Forced: No

Text #35
ID: 37
Format: UTF-8
Codec ID: S_TEXT/UTF8
Codec ID/Info: UTF-8 Plain Text
Duration: 46 min 3 s
Bit rate: 36 b/s
Frame rate: 0.170 FPS
Count of elements: 469
Stream size: 12.4 KiB (0%)
Language: Slovenian
Default: No
Forced: No

Text #36
ID: 38
Format: UTF-8
Codec ID: S_TEXT/UTF8
Codec ID/Info: UTF-8 Plain Text
Duration: 46 min 3 s
Bit rate: 42 b/s
Frame rate: 0.160 FPS
Count of elements: 443
Stream size: 14.4 KiB (0%)
Language: Swedish
Default: No
Forced: No

Text #37
ID: 39
Format: UTF-8
Codec ID: S_TEXT/UTF8
Codec ID/Info: UTF-8 Plain Text
Duration: 46 min 3 s
Bit rate: 150 b/s
Frame rate: 0.201 FPS
Count of elements: 556
Stream size: 50.8 KiB (0%)
Language: Tamil
Default: No
Forced: No

Text #38
ID: 40
Format: UTF-8
Codec ID: S_TEXT/UTF8
Codec ID/Info: UTF-8 Plain Text
Duration: 46 min 3 s
Bit rate: 136 b/s
Frame rate: 0.203 FPS
Count of elements: 561
Stream size: 45.9 KiB (0%)
Language: Telugu
Default: No
Forced: No

Text #39
ID: 41
Format: UTF-8
Codec ID: S_TEXT/UTF8
Codec ID/Info: UTF-8 Plain Text
Duration: 46 min 3 s
Bit rate: 117 b/s
Frame rate: 0.204 FPS
Count of elements: 563
Stream size: 39.8 KiB (0%)
Language: Thai
Default: No
Forced: No

Text #40
ID: 42
Format: UTF-8
Codec ID: S_TEXT/UTF8
Codec ID/Info: UTF-8 Plain Text
Duration: 46 min 3 s
Bit rate: 44 b/s
Frame rate: 0.190 FPS
Count of elements: 525
Stream size: 15.1 KiB (0%)
Language: Turkish
Default: No
Forced: No

Text #41
ID: 43
Format: UTF-8
Codec ID: S_TEXT/UTF8
Codec ID/Info: UTF-8 Plain Text
Duration: 46 min 3 s
Bit rate: 71 b/s
Frame rate: 0.203 FPS
Count of elements: 560
Stream size: 24.0 KiB (0%)
Language: Ukrainian
Default: No
Forced: No

Text #42
ID: 44
Format: UTF-8
Codec ID: S_TEXT/UTF8
Codec ID/Info: UTF-8 Plain Text
Duration: 46 min 3 s
Bit rate: 63 b/s
Frame rate: 0.202 FPS
Count of elements: 557
Stream size: 21.3 KiB (0%)
Language: Vietnamese
Default: No
Forced: No

Text #43
ID: 45
Format: UTF-8
Codec ID: S_TEXT/UTF8
Codec ID/Info: UTF-8 Plain Text
Duration: 46 min 3 s
Bit rate: 37 b/s
Frame rate: 0.204 FPS
Count of elements: 563
Stream size: 12.8 KiB (0%)
Title: Chinese (Traditional)
Language: Chinese (Traditional)
Default: No
Forced: No

Menu
00:00:00.000: en:Chapter 1
00:04:24.375: en:Intro
00:05:38.541: en:Chapter 2

ssl  EZTV RSS EZTV Status | EZTV API | DMCA: [email protected]