eztvx.to | eztvstatus.org
Search title:  
TV Packs only
 

Murdoch Mysteries S17E04 720p x264-FENiX EZTV

Episode Breakdown
Murdoch Mysteries
Murdoch Mysteries TV Show S17E04

Season: 17
Episode: 4
Air Date: 23 October, 2023
Download Links
     Torrent Download     Magnet Download
     Anonymous Download
Added 4 months ago by eztv (verified).
Tracker Statistics
Seeds: 1
Peers: 0
Stats generated @ 03:04 on 4th Mar 2024
Torrent Info
Torrent File: Murdoch.Mysteries.S17E04.720p.x264-FENiX[eztv.re].mkv
Torrent Hash: CF26C7F80A2D7B9AE453BD4787B322445431F21F
Filesize: 409 MB
Released: 23rd Oct 2023

File Format: MKV (Matroska)
Resolution: 1280x720 px
Aspect Ratio: 16:9
Alternate Releases S L
Murdoch Mysteries S17E04 720p WEBRip x264-BAE 5 1
Murdoch Mysteries S17E04 1080p WEBRip x264-BAE 9 1
Murdoch Mysteries S17E04 480p x264-mSD 7 1
Murdoch Mysteries S17E04 XviD-AFG 3 2
Murdoch Mysteries S17E04 720p x265-T0PAZ 9 0
Murdoch Mysteries S17E04 1080p x265-ELiTE 9 0
Murdoch Mysteries S17E04 1080p HEVC x265-MeGusta 12 3

Murdoch Mysteries S17E04 - Bottom of the Barrel

Summary:

Murdoch suspects the stabbing of a man at an oyster bar is linked to a former case involving harlots sold into marriage.



Murdoch Mysteries S17E04 720p x264-FENiX EZTV
Murdoch Mysteries S17E4 Screenshot


General
Unique ID: 317561014799969360209307041815507181225 (0xEEE806D9916FBE1B489BC3EC43231EA9)
Complete name: Murdoch.Mysteries.S17E04.720p.x264-FENiX.mkv
Format: Matroska
Format version: Version 4
File size: 409 MiB
Duration: 44 min 12 s
Overall bit rate: 1 293 kb/s
Movie name: Murdoch.Mysteries.S17E04
Writing application: Lavf59.16.100
Writing library: Lavf59.16.100
Comment: FENiX-Mon-23-Oct-2023,22:07:23,720p,23,fast,4591683,0,-1
ErrorDetectionType: Per level 1

Video
ID: 1
Format: AVC
Format/Info: Advanced Video Codec
Format profile: [email protected]
Format settings: CABAC / 4 Ref Frames
Format settings, CABAC: Yes
Format settings, Reference frames: 4 frames
Codec ID: V_MPEG4/ISO/AVC
Duration: 44 min 12 s
Bit rate: 820 kb/s
Width: 1 280 pixels
Height: 720 pixels
Display aspect ratio: 16:9
Frame rate mode: Variable
Color space: YUV
Chroma subsampling: 4:2:0
Bit depth: 8 bits
Scan type: Progressive
Stream size: 259 MiB (63%)
Writing library: x264 core 163
Encoding settings: cabac=1 / ref=2 / deblock=1:0:0 / analyse=0x3:0x113 / me=hex / subme=6 / psy=1 / psy_rd=1.00:0.00 / mixed_ref=1 / me_range=16 / chroma_me=1 / trellis=1 / 8x8dct=1 / cqm=0 / deadzone=21,11 / fast_pskip=1 / chroma_qp_offset=-2 / threads=22 / lookahead_threads=3 / sliced_threads=0 / nr=0 / decimate=1 / interlaced=0 / bluray_compat=0 / constrained_intra=0 / bframes=3 / b_pyramid=2 / b_adapt=1 / b_bias=0 / direct=1 / weightb=1 / open_gop=0 / weightp=1 / keyint=250 / keyint_min=23 / scenecut=40 / intra_refresh=0 / rc_lookahead=30 / rc=crf / mbtree=1 / crf=23.0 / qcomp=0.60 / qpmin=0 / qpmax=69 / qpstep=4 / ip_ratio=1.40 / aq=1:1.00
Default: Yes
Forced: No
Color range: Limited
Matrix coefficients: BT.709

Audio
ID: 2
Format: AC-3
Format/Info: Audio Coding 3
Commercial name: Dolby Digital
Codec ID: A_AC3
Duration: 44 min 12 s
Bit rate mode: Constant
Bit rate: 448 kb/s
Channel(s): 6 channels
Channel layout: L R C LFE Ls Rs
Sampling rate: 48.0 kHz
Frame rate: 31.250 FPS (1536 SPF)
Bit depth: 32 bits
Compression mode: Lossy
Stream size: 142 MiB (35%)
Writing library: Lavc59.18.100 ac3
Language: English
Service kind: Complete Main
Default: Yes
Forced: No

Text
ID: 3
Format: UTF-8
Codec ID: S_TEXT/UTF8
Codec ID/Info: UTF-8 Plain Text
Duration: 44 min 10 s
Language: English
Default: No
Forced: No

ssl  EZTV RSS EZTV Status | EZTV API | DMCA: [email protected]