eztvx.to | eztvstatus.org
Search title:  
TV Packs only
 

American Dad! S20E12 Don't You Be My Neighbor 1080p AMZN WEB-DL DDP5 1 H 264-NTb EZTV

Episode Breakdown
American Dad
American Dad TV Show S20E12

Season: 20
Episode: 12
Download Links
     Torrent Download     Magnet Download
     Anonymous Download
Added 9 months ago by eztv (verified).
Tracker Statistics
Seeds: 45
Peers: 14
Stats generated @ 14:14 on 23rd Jun 2024
Torrent Info
Torrent File: American.Dad!.S20E12.Don't.You.Be.My.Neighbor.1080p.AMZN.WEB-DL.DDP5.1.H.264-NTb[eztv.re].mkv
Torrent Hash: 59D513757CCE96E25C4FE1D16F7C97554FE9CD8B
Filesize: 396 MB
Released: 19th Sep 2023

File Format: MKV (Matroska)
Resolution: 1920x1080 px
Aspect Ratio: 16:9
Alternate Releases S L
American Dad! S20E12 Don't You Be My Neighbor 720p AMZN WEB-DL DDP5 1 H 264-NTb 15 8
American Dad! S20E12 Don't You Be My Neighbor 1080p DSNP WEB-DL DDP5 1 H 264-NTb 11 8

Episode Description
American Dad! S20E12 Don't You Be My Neighbor 1080p AMZN WEB-DL DDP5 1 H 264-NTb EZTV
American Dad S20E12 Screenshot


General
Unique ID: 116936602970832259855544637718757113225 (0x57F92BA791933979286C460FB8A7FD89)
Complete name: American.Dad!.S20E12.Don't.You.Be.My.Neighbor.1080p.AMZN.WEB-DL.DDP5.1.H.264-NTb.mkv
Format: Matroska
Format version: Version 4
File size: 396 MiB
Duration: 21 min 3 s
Overall bit rate: 2 629 kb/s
Frame rate: 23.976 FPS
Writing application: mkvmerge v79.0 ('Funeral Pyres') 64-bit
Writing library: libebml v1.4.4 + libmatroska v1.7.1

Video
ID: 1
Format: AVC
Format/Info: Advanced Video Codec
Format profile: High@L4
Format settings: CABAC / 4 Ref Frames
Format settings, CABAC: Yes
Format settings, Reference frames: 4 frames
Codec ID: V_MPEG4/ISO/AVC
Duration: 21 min 3 s
Bit rate mode: Constant
Bit rate: 1 987 kb/s
Nominal bit rate: 10 000 kb/s
Width: 1 920 pixels
Height: 1 080 pixels
Display aspect ratio: 16:9
Frame rate mode: Constant
Frame rate: 23.976 (24000/1001) FPS
Color space: YUV
Chroma subsampling: 4:2:0
Bit depth: 8 bits
Scan type: Progressive
Bits/(Pixel*Frame): 0.040
Stream size: 299 MiB (76%)
Default: Yes
Forced: No
Color range: Limited
Color primaries: BT.709
Transfer characteristics: BT.709
Matrix coefficients: BT.709

Audio
ID: 2
Format: E-AC-3
Format/Info: Enhanced AC-3
Commercial name: Dolby Digital Plus
Codec ID: A_EAC3
Duration: 21 min 3 s
Bit rate mode: Constant
Bit rate: 640 kb/s
Channel(s): 6 channels
Channel layout: L R C LFE Ls Rs
Sampling rate: 48.0 kHz
Frame rate: 31.250 FPS (1536 SPF)
Compression mode: Lossy
Stream size: 96.4 MiB (24%)
Language: English (US)
Service kind: Complete Main
Default: Yes
Forced: No

Text #1
ID: 3
Format: UTF-8
Codec ID: S_TEXT/UTF8
Codec ID/Info: UTF-8 Plain Text
Duration: 20 min 53 s
Bit rate: 92 b/s
Frame rate: 0.384 FPS
Count of elements: 481
Stream size: 14.2 KiB (0%)
Language: English (US)
Default: No
Forced: No

Text #2
ID: 4
Format: UTF-8
Codec ID: S_TEXT/UTF8
Codec ID/Info: UTF-8 Plain Text
Duration: 21 min 1 s
Bit rate: 98 b/s
Frame rate: 0.423 FPS
Count of elements: 533
Stream size: 15.1 KiB (0%)
Title: SDH
Language: English (US)
Default: No
Forced: No

ssl  EZTV RSS EZTV Status | EZTV API | DMCA: [email protected]