eztvx.to | eztvstatus.org
Search title:  
TV Packs only
 

Smartless on the Road S01E03 Did I Lean on Your Laugh 720p AMZN WEB-DL DDP2 0 H 264-NTb EZTV

Episode Breakdown
SmartLess: On the Road
SmartLess: On the Road TV Show S01E03

Season: 1
Episode: 3
Air Date: 23 May, 2023
Download Links
     Torrent Download     Magnet Download
     Anonymous Download
Added 8 months ago by eztv (verified).
Tracker Statistics
Seeds: 0
Peers: 1
Stats generated @ 14:14 on 27th May 2024
Torrent Info
Torrent File: Smartless.on.the.Road.S01E03.Did.I.Lean.on.Your.Laugh.720p.AMZN.WEB-DL.DDP2.0.H.264-NTb[eztv.re].mkv
Torrent Hash: 54747E9B61047576AF7BBBF77A2707AFA8EE07D1
Filesize: 1.33 GB
Released: 18th Sep 2023

File Format: MKV (Matroska)
Resolution: 1280x720 px
Aspect Ratio: 16:9
Alternate Releases S L
Smartless on the Road S01E03 1080p WEB H264-BIGDOC 2 0

SmartLess: On the Road S01E03 - Did I Lean on Your Laugh?

Summary:

Will, Jason and Sean hit the Big Apple for another set of shows and an obscene amount of room service. With guests David Letterman and Alexandria Ocasio-Cortez, plus an extra-special cameo from a friend in town.



Smartless on the Road S01E03 Did I Lean on Your Laugh 720p AMZN WEB-DL DDP2 0 H 264-NTb EZTV
SmartLess: On the Road S1E3 Screenshot


General
Unique ID: 69407079323562922427646964049633905607 (0x34375136C86D5C21E415C8B002EC8BC7)
Complete name: Smartless.on.the.Road.S01E03.Did.I.Lean.on.Your.Laugh.720p.AMZN.WEB-DL.DDP2.0.H.264-NTb.mkv
Format: Matroska
Format version: Version 4
File size: 1.33 GiB
Duration: 41 min 10 s
Overall bit rate: 4 635 kb/s
Frame rate: 24.000 FPS
Writing application: mkvmerge v69.0.0 ('Day And Age') 64-bit
Writing library: libebml v1.4.2 + libmatroska v1.6.4

Video
ID: 1
Format: AVC
Format/Info: Advanced Video Codec
Format profile: [email protected]
Format settings: CABAC / 4 Ref Frames
Format settings, CABAC: Yes
Format settings, Reference frames: 4 frames
Codec ID: V_MPEG4/ISO/AVC
Duration: 41 min 10 s
Bit rate mode: Constant
Bit rate: 4 409 kb/s
Nominal bit rate: 6 000 kb/s
Width: 1 280 pixels
Height: 576 pixels
Display aspect ratio: 2.2:1
Frame rate mode: Constant
Frame rate: 24.000 FPS
Color space: YUV
Chroma subsampling: 4:2:0
Bit depth: 8 bits
Scan type: Progressive
Bits/(Pixel*Frame): 0.249
Stream size: 1.27 GiB (95%)
Default: Yes
Forced: No
Color range: Limited
Color primaries: BT.709
Transfer characteristics: BT.709
Matrix coefficients: BT.709

Audio
ID: 2
Format: E-AC-3
Format/Info: Enhanced AC-3
Commercial name: Dolby Digital Plus
Codec ID: A_EAC3
Duration: 41 min 10 s
Bit rate mode: Constant
Bit rate: 224 kb/s
Channel(s): 2 channels
Channel layout: L R
Sampling rate: 48.0 kHz
Frame rate: 31.250 FPS (1536 SPF)
Compression mode: Lossy
Stream size: 66.0 MiB (5%)
Language: English (US)
Service kind: Complete Main
Default: Yes
Forced: No

Text #1
ID: 3
Format: UTF-8
Codec ID: S_TEXT/UTF8
Codec ID/Info: UTF-8 Plain Text
Duration: 39 min 53 s
Bit rate: 112 b/s
Frame rate: 0.388 FPS
Count of elements: 930
Stream size: 33.0 KiB (0%)
Language: English
Default: No
Forced: No

Text #2
ID: 4
Format: UTF-8
Codec ID: S_TEXT/UTF8
Codec ID/Info: UTF-8 Plain Text
Duration: 39 min 53 s
Bit rate: 123 b/s
Frame rate: 0.414 FPS
Count of elements: 992
Stream size: 36.1 KiB (0%)
Title: SDH
Language: English
Default: No
Forced: No
ssl  EZTV RSS EZTV Status | EZTV API | DMCA: [email protected]